Арн: Объединенное королевство / Arn: The Kingdom at Road\'s End (Петер Флинт / Peter Flinth) [2008, Германия, Дания, Швеция, Финляндия, Великобритания, Норвегия, боевик, драма, военный, история, BDRip] MVO

 
Автор Сообщение

TorrentFilm ®

Пол:

Стаж: 2 года

Сообщений: 7741



Награды: Нет

Торрент-статистика

Создавать темы 01-Янв-2015 00:00

[Цитировать]

Арн: Объединенное королевство / Arn: The Kingdom at Road's End- Год выпуска: 2008
Страна: Германия, Дания, Швеция, Финляндия, Великобритания, Норвегия
Жанр: боевик, драма, военный, история
Продолжительность: 02:07:37
Перевод: Профессиональный (многоголосый закадровый)
Субтитры: нет
Режиссер: Петер Флинт / Peter Flinth
В ролях: Йоаким Наттерквист, София Хелин, Стеллан Скарсгард, Биби Андерссон, Густаф Скарсгард, Юэль Киннаман, Фанни Рисберг, Андерс Баасмо Кристиансен, Якоб Седергрен, Николас Болтон, Милинд Соман
Описание: Второй фильм о вымышленном шведском рыцаре тамплиеров Арне Магнассоне. История его жизни развивается в Святой земле во времена Саладина, битвы при Хатине и других событий, связанных с тяжёлыми временами Иерусалимского королевства. После всех трудностей, сомнений и испытаний, Арн оставляет Иерусалим совсем другим человеком, возвращается в Швецию измученную феодальными распрями, к своей семье погрязшей в этих дрязгах и к любви своей юности, Сесилии, с которой они были разлучены 20 лет…
-Качество: BDRip [Blu-ray Disc 1080p / HDCLUB]
Формат: AVI
Видео кодек: XviD
Аудио кодек: AC3
Видео: 720x304 (2.37:1), 24.000 fps, XviD build 73 ~1440 kbps avg, 0.27 bit/pixel
Аудио: 48 kHz, AC3 Dolby Digital, 2/0 (L,R) ch, ~192 kbps-Раздача от: -

Скриншоты

MI

D:\Мои рипы\Arn.The.Kingdom.at.Road's.End.2008.bdrip.dexter_lex.avi
General
Complete name : D:\Мои рипы\Arn.The.Kingdom.at.Road's.End.2008.bdrip.dexter_lex.avi
Format : AVI
Format/Info : Audio Video Interleave
File size : 1.46 GiB
Duration : 2h 7mn
Overall bit rate : 1 642 Kbps
Writing application : VirtualDubMod 1.5.10.3 | www.virtualdub-fr.org || (build 2550/release)
Writing library : VirtualDubMod build 2550/release
Video #0
ID : 0
Format : MPEG-4 Visual
Format profile : Advanced Simple@L5
Format settings, BVOP : 1
Format settings, QPel : No
Format settings, GMC : No warppoints
Format settings, Matrix : Custom
Codec ID : XVID
Codec ID/Hint : XviD
Duration : 2h 7mn
Bit rate : 1 440 Kbps
Width : 720 pixels
Height : 304 pixels
Display aspect ratio : 2.35:1
Frame rate : 24.000 fps
Color space : YUV
Chroma subsampling : 4:2:0
Bit depth : 8 bits
Scan type : Progressive
Compression mode : Lossy
Bits/(Pixel*Frame) : 0.274
Stream size : 1.28 GiB (88%)
Writing library : XviD 73
Audio #1
ID : 1
Format : AC-3
Format/Info : Audio Coding 3
Mode extension : CM (complete main)
Codec ID : 2000
Duration : 2h 7mn
Bit rate mode : Constant
Bit rate : 192 Kbps
Channel(s) : 2 channels
Channel positions : Front: L R
Sampling rate : 48.0 KHz
Bit depth : 16 bits
Compression mode : Lossy
Stream size : 175 MiB (12%)
Alignment : Split accross interleaves
Interleave, duration : 42 ms (1.00 video frame)
Interleave, preload duration : 500 ms
[Профиль] [ЛС]

Создавать темы 06-Авг-2015 22:50 (спустя 7 месяцев 5 дней)

Топик был перенесен из форума Фильмы до 2014 года в форум Фильмы до 2012 года
sergej644
 

Создавать темы 12-Июн-2016 08:51 (спустя 1 год 5 месяцев)

Топик был перенесен из форума Фильмы 2011 года в форум Фильмы 2006-2008 года
Russian Mafia
 
Кто просматривает тему:

Показать сообщения:    

Текущее время: Сегодня 02:40

Часовой пояс: GMT



Вы не можете начинать темы
Вы не можете отвечать на сообщения
Вы не можете редактировать свои сообщения
Вы не можете удалять свои сообщения
Вы не можете голосовать в опросах
Вы не можете прикреплять файлы к сообщениям
Вы не можете скачивать файлы