(Heavy Metal) Ария - Ночь короче дня (2010 remaster) - 1995 / 2010 [FLAC, tracks+.cue, lossless]

 
Автор Сообщение

sergej644 ®

Пол:

Стаж: 4 года 11 месяцев

Сообщений: 6043

Откуда: Soviet Union



Награды: Нет

Торрент-статистика

Создавать темы 21-Дек-2015 16:11

[Цитировать]

-Ария / Ночь короче дня (2010 remaster)-- Год / Год издания: 1995 / 2010
Страна: Russia
Жанр: Heavy Metal
Продолжительность: 00:51:07-Лейбл издания: Moroz Records
Страна-выпуска диска: Japan
Номер по каталогу: MR 95060 CD
Формат: FLAC
Битрейт аудио: lossless
Тип рипа: tracks+.cue
Наличие сканов в содержимом раздачи: нет
-

Трэклист

01.Рабство Иллюзий (05:52)
02.Паранойя (05:00)
03.Ангельская Пыль (06:01)
04.Уходи, И Не Возвращайся! (03:52)
05.Король Дороги (04:18)
06.Возьми Моё Сердце (04:07)
07.Зверь (03:45)
08.Дух Войны (04:59)
09.Ночь Короче Дня (07:15)
10.Ангельская Пыль (Версия 1994 года) (06:01)
-

Лог создания рипа

Exact Audio Copy V1.0 beta 1 from 15. November 2010
EAC extraction logfile from 9. April 2011, 1:27
Ария / Ночь короче дня (Japanese remaster 2010)
Used drive  : ASUS    DRW-1814BLT   Adapter: 2  ID: 1
Read mode               : Secure
Utilize accurate stream : Yes
Defeat audio cache      : Yes
Make use of C2 pointers : No
Read offset correction                      : 6
Overread into Lead-In and Lead-Out          : No
Fill up missing offset samples with silence : Yes
Delete leading and trailing silent blocks   : No
Null samples used in CRC calculations       : Yes
Used interface                              : Installed external ASPI interface
Gap handling                                : Appended to previous track
Used output format              : User Defined Encoder
Selected bitrate                : 128 kBit/s
Quality                         : High
Add ID3 tag                     : No
Command line compressor         : C:\Program Files\Exact Audio Copy\Flac\flac.exe
Additional command line options : -8 -V -T "ARTIST=%a" -T "TITLE=%t" -T "ALBUM=%g" -T "DATE=%y" -T "TRACKNUMBER=%n" -T "GENRE=%m" -T "COMMENT=EAC FLAC -8" %s
TOC of the extracted CD
     Track |   Start  |  Length  | Start sector | End sector
    ---------------------------------------------------------
        1  |  0:00.00 |  5:51.32 |         0    |    26356
        2  |  5:51.32 |  4:59.60 |     26357    |    48841
        3  | 10:51.17 |  6:00.53 |     48842    |    75894
        4  | 16:51.70 |  3:51.17 |     75895    |    93236
        5  | 20:43.12 |  4:17.38 |     93237    |   112549
        6  | 25:00.50 |  4:06.25 |    112550    |   131024
        7  | 29:07.00 |  3:44.57 |    131025    |   147881
        8  | 32:51.57 |  4:58.63 |    147882    |   170294
        9  | 37:50.45 |  7:14.67 |    170295    |   202911
       10  | 45:05.37 |  6:00.60 |    202912    |   229971
Track  1
     Filename C:\Ночь короче дня (2011 remaster)\01. Ария - Рабство Иллюзий.wav
     Pre-gap length  0:00:02.00
     Peak level 99.3 %
     Extraction speed 5.1 X
     Track quality 100.0 %
     Test CRC 92EF1308
     Copy CRC 92EF1308
     Track not present in AccurateRip database
     Copy OK
Track  2
     Filename C:\Ночь короче дня (2011 remaster)\02. Ария - Паранойя.wav
     Peak level 99.3 %
     Extraction speed 5.6 X
     Track quality 100.0 %
     Test CRC B8B9CDA8
     Copy CRC B8B9CDA8
     Track not present in AccurateRip database
     Copy OK
Track  3
     Filename C:\Ночь короче дня (2011 remaster)\03. Ария - Ангельская Пыль.wav
     Peak level 99.3 %
     Extraction speed 6.2 X
     Track quality 100.0 %
     Test CRC F30CA47A
     Copy CRC F30CA47A
     Track not present in AccurateRip database
     Copy OK
Track  4
     Filename C:\Ночь короче дня (2011 remaster)\04. Ария - Уходи, И Не Возвращайся!.wav
     Peak level 99.3 %
     Extraction speed 6.3 X
     Track quality 100.0 %
     Test CRC 46C3D6CF
     Copy CRC 46C3D6CF
     Track not present in AccurateRip database
     Copy OK
Track  5
     Filename C:\Ночь короче дня (2011 remaster)\05. Ария - Король Дороги.wav
     Peak level 99.3 %
     Extraction speed 6.8 X
     Track quality 100.0 %
     Test CRC 4058EB35
     Copy CRC 4058EB35
     Track not present in AccurateRip database
     Copy OK
Track  6
     Filename C:\Ночь короче дня (2011 remaster)\06. Ария - Возьми Моё Сердце.wav
     Peak level 99.3 %
     Extraction speed 7.0 X
     Track quality 100.0 %
     Test CRC 8CD4556E
     Copy CRC 8CD4556E
     Track not present in AccurateRip database
     Copy OK
Track  7
     Filename C:\Ночь короче дня (2011 remaster)\07. Ария - Зверь.wav
     Peak level 99.3 %
     Extraction speed 7.2 X
     Track quality 100.0 %
     Test CRC BA009582
     Copy CRC BA009582
     Track not present in AccurateRip database
     Copy OK
Track  8
     Filename C:\Ночь короче дня (2011 remaster)\08. Ария - Дух Войны.wav
     Peak level 99.3 %
     Extraction speed 5.7 X
     Track quality 99.9 %
     Test CRC 90E7E8ED
     Copy CRC 90E7E8ED
     Track not present in AccurateRip database
     Copy OK
Track  9
     Filename C:\Ночь короче дня (2011 remaster)\09. Ария - Ночь Короче Дня.wav
     Peak level 99.3 %
     Extraction speed 8.5 X
     Track quality 100.0 %
     Test CRC 3CC48F33
     Copy CRC 3CC48F33
     Track not present in AccurateRip database
     Copy OK
Track 10
     Filename C:\Ночь короче дня (2011 remaster)\10. Ария - Ангельская Пыль (Версия 1994 года).wav
     Peak level 99.3 %
     Extraction speed 8.7 X
     Track quality 100.0 %
     Test CRC 4A99C4D9
     Copy CRC 4A99C4D9
     Track not present in AccurateRip database
     Copy OK
None of the tracks are present in the AccurateRip database
No errors occurred
End of status report

Индексная карта (non-compilant .cue)

REM DISCID 7A0BFA0A
REM COMMENT "ExactAudioCopy v1.0b1"
PERFORMER "Ария"
TITLE "Ночь короче дня (Japanese remaster 2010)"
FILE "01. Ария - Рабство Иллюзий.wav" WAVE
  TRACK 01 AUDIO
    TITLE "Рабство Иллюзий"
    PERFORMER "Ария"
    INDEX 01 00:00:00
FILE "02. Ария - Паранойя.wav" WAVE
  TRACK 02 AUDIO
    TITLE "Паранойя"
    PERFORMER "Ария"
    INDEX 01 00:00:00
FILE "03. Ария - Ангельская Пыль.wav" WAVE
  TRACK 03 AUDIO
    TITLE "Ангельская Пыль"
    PERFORMER "Ария"
    INDEX 01 00:00:00
FILE "04. Ария - Уходи, И Не Возвращайся!.wav" WAVE
  TRACK 04 AUDIO
    TITLE "Уходи, И Не Возвращайся!"
    PERFORMER "Ария"
    INDEX 01 00:00:00
FILE "05. Ария - Король Дороги.wav" WAVE
  TRACK 05 AUDIO
    TITLE "Король Дороги"
    PERFORMER "Ария"
    INDEX 01 00:00:00
FILE "06. Ария - Возьми Моё Сердце.wav" WAVE
  TRACK 06 AUDIO
    TITLE "Возьми Моё Сердце"
    PERFORMER "Ария"
    INDEX 01 00:00:00
FILE "07. Ария - Зверь.wav" WAVE
  TRACK 07 AUDIO
    TITLE "Зверь"
    PERFORMER "Ария"
    INDEX 01 00:00:00
FILE "08. Ария - Дух Войны.wav" WAVE
  TRACK 08 AUDIO
    TITLE "Дух Войны"
    PERFORMER "Ария"
    INDEX 01 00:00:00
FILE "09. Ария - Ночь Короче Дня.wav" WAVE
  TRACK 09 AUDIO
    TITLE "Ночь Короче Дня"
    PERFORMER "Ария"
    INDEX 01 00:00:00
FILE "10. Ария - Ангельская Пыль (Версия 1994 года).wav" WAVE
  TRACK 10 AUDIO
    TITLE "Ангельская Пыль (Версия 1994 года)"
    PERFORMER "Ария"
    INDEX 01 00:00:00
--Не забываем говорить
[Профиль] [ЛС]
Показать сообщения:    

Текущее время: Сегодня 08:13

Часовой пояс: GMT



Вы не можете начинать темы
Вы не можете отвечать на сообщения
Вы не можете редактировать свои сообщения
Вы не можете удалять свои сообщения
Вы не можете голосовать в опросах
Вы не можете прикреплять файлы к сообщениям
Вы не можете скачивать файлы