( Symphonic Heavy Metal)Ария - Классическая Ария (Live) - 2016 [FLAC, image +.cue, lossless]

 
Автор Сообщение

sergej644 ®

Пол:

Стаж: 4 года 11 месяцев

Сообщений: 6041

Откуда: Soviet Union



Награды: Нет

Торрент-статистика

Создавать темы 31-Авг-2016 20:41

[Цитировать]

-Ария - Классическая Ария (Live)--
Год издания: 2016
Страна: Russia
Жанр: Symphonic Heavy Metal
Продолжительность: 01:12:07-Лейбл издания: М2БА
Страна-выпуска диска: Russia
Номер по каталогу: М2Б2 - 0047-Формат: FLAC
Битрейт аудио: Lossless
Тип рипа: image +.cue
Наличие сканов в содержимом раздачи: да
-

Трэклист


01. Игра с огнём (09:28)
02. Чёрная легенда (07:58)
03. Колизей (06:51)
04. Зов бездны (07:34)
05. Кровь королей (08:35)
06. Точка невозврата (05:14)
07. Кровь за кровь (08:04)
08. Осколок льда (05:34)
09. Штиль (05:43)
10. Замкнутый круг (07:07)
-

Лог создания рипа

Exact Audio Copy V1.0 beta 3 from 29. August 2011
Отчёт EAC об извлечении, выполненном 16. мая 2016, 9:43
Ария / Классическая Ария
Дисковод: PIONEER DVD-RW  DVR-218L   Adapter: 0  ID: 0
Режим чтения                 : Достоверность
Использование точного потока : Да
Отключение кэша аудио        : Да
Использование указателей C2  : Нет
Коррекция смещения при чтении                     : 6
Способность читать области Lead-in и Lead-out     : Нет
Заполнение пропущенных сэмплов тишиной            : Да
Удаление блоков с тишиной в начале и конце        : Нет
При вычислениях CRC использовались нулевые сэмплы : Да
Интерфейс                                         : Встроенный Win32-интерфейс для Win NT/2000
Выходной формат          : Пользовательский кодировщик
Выбранный битрейт        : 128 kBit/s
Качество                 : Высокий
Добавление ID3-тега      : Нет
Утилита сжатия           : C:\Program Files (x86)\Exact Audio Copy\Flac\flac.exe
Дополнительные параметры : -V -7 -T "Genre=%genre%" -T "Artist=%artist%" -T "Title=%title%" -T "Album=%albumtitle%" -T "Date=%year%" -T "Tracknumber=%tracknr%" -T "Comment=%comment%" %source%
TOC извлечённого CD
     Трек |   Старт  | Длительность | Начальный сектор | Конечный сектор
    ---------------------------------------------------------------------
       1  |  0:00.00 |    9:28.09   |           0      |      42608
       2  |  9:28.09 |    7:57.41   |       42609      |      78424
       3  | 17:25.50 |    6:50.74   |       78425      |     109248
       4  | 24:16.49 |    7:34.02   |      109249      |     143300
       5  | 31:50.51 |    8:34.50   |      143301      |     181900
       6  | 40:25.26 |    5:13.70   |      181901      |     205445
       7  | 45:39.21 |    8:04.18   |      205446      |     241763
       8  | 53:43.39 |    5:34.16   |      241764      |     266829
       9  | 59:17.55 |    5:42.56   |      266830      |     292535
      10  | 65:00.36 |    7:06.72   |      292536      |     324557
Характеристики диапазона извлечения и сообщения об ошибках
Выбранный диапазон
     Имя файла E:\_VIDEO\_seriaЛЫ_\!!!muz\Ария - Классическая Ария (2016)\Ария - Классическая Ария (2016).wav
     Пиковый уровень 96.5 %
     Скорость извлечения 2.0 X
     Качество диапазона 100.0 %
     CRC теста D71CB48B
     CRC копии D71CB48B
     Копирование... OK
Ошибок не произошло
AccurateRip: сводка
Трек  1  отсутствует в базе данных
Трек  2  отсутствует в базе данных
Трек  3  отсутствует в базе данных
Трек  4  отсутствует в базе данных
Трек  5  отсутствует в базе данных
Трек  6  отсутствует в базе данных
Трек  7  отсутствует в базе данных
Трек  8  отсутствует в базе данных
Трек  9  отсутствует в базе данных
Трек 10  отсутствует в базе данных
Ни одного трека нет в базе AccurateRip
Конец отчёта

Индексная карта (non-compilant .cue)

REM GENRE "Heavy Metal"
REM DATE 2016
REM DISCID 8610E70A
REM COMMENT "ExactAudioCopy v1.0b3"
PERFORMER "Ария"
TITLE "Классическая Ария"
FILE "Ария - Классическая Ария (2016).flac" WAVE
  TRACK 01 AUDIO
    TITLE "Игра с огнём"
    PERFORMER "Ария"
    INDEX 01 00:00:00
  TRACK 02 AUDIO
    TITLE "Чёрная легенда"
    PERFORMER "Ария"
    INDEX 01 09:28:09
  TRACK 03 AUDIO
    TITLE "Колизей"
    PERFORMER "Ария"
    INDEX 01 17:25:50
  TRACK 04 AUDIO
    TITLE "Зов бездны"
    PERFORMER "Ария"
    INDEX 01 24:16:49
  TRACK 05 AUDIO
    TITLE "Кровь королей"
    PERFORMER "Ария"
    INDEX 01 31:50:51
  TRACK 06 AUDIO
    TITLE "Точка невозврата"
    PERFORMER "Ария"
    INDEX 01 40:25:26
  TRACK 07 AUDIO
    TITLE "Кровь за кровь"
    PERFORMER "Ария"
    INDEX 01 45:39:21
  TRACK 08 AUDIO
    TITLE "Осколок льда"
    PERFORMER "Ария"
    INDEX 01 53:43:39
  TRACK 09 AUDIO
    TITLE "Штиль"
    PERFORMER "Ария"
    INDEX 01 59:17:55
  TRACK 10 AUDIO
    TITLE "Замкнутый круг"
    PERFORMER "Ария"
    INDEX 01 65:00:36

лог проверки качества:

AUDIOCHECKER v2.0 beta (build 457) - by Dester - opdester@freemail.hu
~~~~~~~~~~~~~~~~~~~~~~~~~~~~~~~~~~
Started at: среда, 31. 08. 2016. - 22:59.13
1 file found
1 -===- G:\для передачи компам\Ария - Классическая Ария (2016)\Ария - Классическая Ария (2016).flac
  Extracted successfully
  Conclusion: this track is CDDA with probability 100%
  Tempfile successfully deleted.
Finished at: среда, 31. 08. 2016. - 23:02.44 (operation time: 0:03.30)
-

+

«Классическая Ария» – это запись аншлагового концерта группы при участии симфонического оркестра «Глобалис» под управлением шведского дирижера Ульфа Ваденбрандта, записанный на видео 29 ноября 2015 года в Москве в концертном зале «Stadium Live».
--
[Профиль] [ЛС]
Кто просматривает тему:

Показать сообщения:    

Текущее время: Сегодня 08:33

Часовой пояс: GMT



Вы не можете начинать темы
Вы не можете отвечать на сообщения
Вы не можете редактировать свои сообщения
Вы не можете удалять свои сообщения
Вы не можете голосовать в опросах
Вы не можете прикреплять файлы к сообщениям
Вы не можете скачивать файлы