(Heavy Metal) Ария - В Желтом Круге Арены - 2012, FLAC (image+.cue), lossless

 
Автор Сообщение

sergej644 ®

Пол:

Стаж: 4 года 11 месяцев

Сообщений: 6046

Откуда: Soviet Union



Награды: Нет

Торрент-статистика

Создавать темы 29-Июл-2014 15:11

[Цитировать]

-Ария - В Желтом Круге Арены- Страна: Россия || Страна-производитель диска: Россия || Год издания: 2012 || Жанр: Heavy Metal || Издатель (лейбл): Никитин || Номер по каталогу: МДС-CD 128/12; МДС-CD 129/12 || Аудиокодек: FLAC (*.flac) || Битрейт аудио: lossless || Продолжительность: 01:55:13- -

CD 1

продолжительность: 00:53:16
1. Чёрный квадрат (6:48)
2. Бои без правил (6:51)
3. Ночь короче дня (7:40)
4. Феникс (6:45)
5. Дальний свет (4:42)
6. Обман (5:23)
7. Чёрная Легенда (8:34)
8. История одного убийцы (6:35)

CD 2

продолжительность: 01:01:57
1. Колизей (6:28)
2. Кровь за кровь (8:05)
3. Аттила (6:21)
4. Последний закат (5:04)
5. Осколок льда (5:38)
6. Штиль (5:45)
7. Небо тебя найдет (6:12)
8. Герой асфальта (6:11)
9. Улица роз (7:44)
10. Дай жару! (5:28)
-

Лог создания рипа CD1

Exact Audio Copy V1.0 beta 3 from 29. August 2011
EAC extraction logfile from 23. November 2012, 19:40
Ария / В Желтом Круге Арены
Used drive  : ASUS    DRW-2014S1T   Adapter: 1  ID: 0
Read mode               : Secure
Utilize accurate stream : Yes
Defeat audio cache      : Yes
Make use of C2 pointers : No
Read offset correction                      : 6
Overread into Lead-In and Lead-Out          : No
Fill up missing offset samples with silence : Yes
Delete leading and trailing silent blocks   : No
Null samples used in CRC calculations       : Yes
Used interface                              : Native Win32 interface for Win NT & 2000
Used output format              : User Defined Encoder
Selected bitrate                : 1024 kBit/s
Quality                         : High
Add ID3 tag                     : No
Command line compressor         : C:\Program Files\Exact Audio Copy\Flac\flac.exe
Additional command line options : -V -8 -T "Date=%year%" -T "Genre=%genre%" %source%
TOC of the extracted CD
Track |   Start  |  Length  | Start sector | End sector
---------------------------------------------------------
1  |  0:00.00 |  6:48.13 |         0    |    30612
2  |  6:48.13 |  6:50.39 |     30613    |    61401
3  | 13:38.52 |  7:39.42 |     61402    |    95868
4  | 21:18.19 |  6:45.21 |     95869    |   126264
5  | 28:03.40 |  4:41.50 |    126265    |   147389
6  | 32:45.15 |  5:23.29 |    147390    |   171643
7  | 38:08.44 |  8:33.62 |    171644    |   210180
8  | 46:42.31 |  6:34.42 |    210181    |   239772
Range status and errors
Selected range
Filename H:\Ария\Ария - 2012 - В Желтом Круге Арены (CD)\CD1\Ария - В Желтом Круге Арены (CD1).wav
Peak level 99.9 %
Extraction speed 7.7 X
Range quality 100.0 %
Test CRC FB3D6313
Copy CRC FB3D6313
Copy OK
No errors occurred
End of status report
==== Log checksum 1298FB3C74C7CF7B4C34AA7D670BA37BE22847C7E545C30A529B20CF429E59B9 ====

Лог создания рипа CD2

Exact Audio Copy V1.0 beta 3 from 29. August 2011
EAC extraction logfile from 23. November 2012, 20:15
Ария / В Желтом Круге Арены
Used drive  : ASUS    DRW-2014S1T   Adapter: 1  ID: 0
Read mode               : Secure
Utilize accurate stream : Yes
Defeat audio cache      : Yes
Make use of C2 pointers : No
Read offset correction                      : 6
Overread into Lead-In and Lead-Out          : No
Fill up missing offset samples with silence : Yes
Delete leading and trailing silent blocks   : No
Null samples used in CRC calculations       : Yes
Used interface                              : Native Win32 interface for Win NT & 2000
Used output format              : User Defined Encoder
Selected bitrate                : 1024 kBit/s
Quality                         : High
Add ID3 tag                     : No
Command line compressor         : C:\Program Files\Exact Audio Copy\Flac\flac.exe
Additional command line options : -V -8 -T "Date=%year%" -T "Genre=%genre%" %source%
TOC of the extracted CD
Track |   Start  |  Length  | Start sector | End sector
---------------------------------------------------------
1  |  0:00.00 |  6:28.12 |         0    |    29111
2  |  6:28.12 |  8:05.30 |     29112    |    65516
3  | 14:33.42 |  6:20.64 |     65517    |    94080
4  | 20:54.31 |  5:03.51 |     94081    |   116856
5  | 25:58.07 |  5:37.67 |    116857    |   142198
6  | 31:35.74 |  5:44.55 |    142199    |   168053
7  | 37:20.54 |  6:12.33 |    168054    |   195986
8  | 43:33.12 |  5:11.04 |    195987    |   219315
9  | 48:44.16 |  7:44.07 |    219316    |   254122
10  | 56:28.23 |  5:28.16 |    254123    |   278738
Range status and errors
Selected range
Filename H:\Ария\Ария - 2012 - В Желтом Круге Арены (CD)\CD2\Ария - В Желтом Круге Арены (CD2).wav
Peak level 99.9 %
Extraction speed 8.0 X
Range quality 100.0 %
Test CRC 7D85449A
Copy CRC 7D85449A
Copy OK
No errors occurred
End of status report
==== Log checksum 81CDB20A37F03084BA37E5D59FAB08855856DEFBAC3D85D8759414E1FF775472 ====
-

Лог проверки качества CD1

-----------------------------------------------------------
Started at: пятница, 23. 11. 2012. - 19:48.36
1 file found
1 -===- H:\Ария\Ария - 2012 - В Желтом Круге Арены (CD)\CD1\Ария - В Желтом Круге Арены (CD1).flac
Extracted successfully
Conclusion: this track is CDDA with probability 100%
Tempfile successfully deleted.
Finished at: пятница, 23. 11. 2012. - 19:54.10 (operation time: 0:05.34)

Лог проверки качества CD2

-----------------------------------------------------------
Started at: пятница, 23. 11. 2012. - 20:16.40
1 file found
1 -===- H:\Ария\Ария - 2012 - В Желтом Круге Арены (CD)\CD2\Ария - В Желтом Круге Арены (CD2).flac
Extracted successfully
Conclusion: this track is CDDA with probability 100%
Tempfile successfully deleted.
Finished at: пятница, 23. 11. 2012. - 20:24.37 (operation time: 0:07.57)
-

Скриншот спектра частот CD1

Скриншот спектра частот CD2

-

Об альбоме (сборнике)

Радостная новость для всех «арийцев» в День рождения группы - в конце ноября 2012 года свет увидит новый концертный релиз группы АРИЯ "В желтом круге арены".
Новинка будет состоять из DVD-диска и двойной CD-версии. В основу релиза лег концерт Арии, состоявшийся в Москве 14 апреля 2012 года в клубе Arena Moscow.
Всего на диск войдут 18 композиций, среди которых будут как старые, проверенные временем треки, так и песни с последнего студийного альбома Арии "Феникс". Общее время звучания 1час 57 минут.

Состав

  • Михаил Житняков - вокал
  • Владимир Холстинин - гитара
  • Сергей Попов - гитара
  • Виталий Дубинин - бас-гитара
  • Максим Удалов - Барабаны
- -
[Профиль] [ЛС]

Создавать темы 13-Авг-2015 10:29 (спустя 1 год)

Топик был перенесен из форума Отечественная в форум Metal
sergej644
 
Показать сообщения:    

Текущее время: Сегодня 14:08

Часовой пояс: GMT



Вы не можете начинать темы
Вы не можете отвечать на сообщения
Вы не можете редактировать свои сообщения
Вы не можете удалять свои сообщения
Вы не можете голосовать в опросах
Вы не можете прикреплять файлы к сообщениям
Вы не можете скачивать файлы