Аргонавты (Александра Снежко-Блоцкая) [1971, Рисованный мультфильм, SATRip]

 
Автор Сообщение

TorrentFilm ®

Пол:

Стаж: 2 года

Сообщений: 7741



Награды: Нет

Торрент-статистика

Создавать темы 27-Май-2015 00:04

[Цитировать]

Аргонавты
Страна: CCCР
Жанр: Рисованный мультфильм
Продолжительность: 00:19:11
Год выпуска: 1971
Русские субтитры: нет
Режиссёр: Александра Снежко-Блоцкая
Роли озвучивали: Тамара Дмитриева, Алексей Консовский, Владимир Сошальский, Татьяна Ленникова, Агарь Власова, Л. Золотухин
Описание: Два греческих подростка-козопаса находят развалины корабля на берегу и рядом с ним старца, который рассказывает историю этого судна. Этот корабль звался «Арго», и отплывал с величайшими героями Эллады за Золотым Руном в Колхиду. На пути им встречались препятствия: движущиеся скалы, стимфалы — чудовищные птицы, поющие сирены ...
Доп. информация: "Cоюзмультфильм"
Релиз группы:
Исходник для рипа любезно представлен SLuMeP
Качество: SATRip
Формат: AVI
Видео: 704x528 (1.33:1), 25 fps, XviD MPEG-4 ~2099 kbps avg, 0.23 bit/pixel
Аудио: 48 kHz, AC3 Dolby Digital, 1/0 (C) ch, ~128.00 kbps avg
Субтитры: нет

Подробные технические данные

Format : AVIFormat/Info : Audio Video InterleaveFile size : 307 MiBDuration : 19mn 11sOverall bit rate : 2 238 KbpsWriting application : VirtualDubModRus 1.5.10.2 (build 2542/release)Copyright : Rutracker.orgComment : SATRip by dvdss
VideoID : 0Format : MPEG-4 VisualFormat profile : Advanced Simple@L5Format settings, BVOP : 2Format settings, QPel : NoFormat settings, GMC : No warppointsFormat settings, Matrix : CustomCodec ID : XVIDCodec ID/Hint : XviDDuration : 19mn 11sBit rate : 2 100 KbpsWidth : 704 pixelsHeight : 528 pixelsDisplay aspect ratio : 5:4Original display aspect ratio : 4:3Frame rate : 25.000 fpsColor space : YUVChroma subsampling : 4:2:0Bit depth : 8 bitsScan type : ProgressiveCompression mode : LossyBits/(Pixel*Frame) : 0.226Stream size : 288 MiB (94%)Writing library : XviD 65
AudioID : 1Format : AC-3Format/Info : Audio Coding 3Mode extension : CM (complete main)Format settings, Endianness : BigCodec ID : 2000Duration : 19mn 11sBit rate mode : ConstantBit rate : 128 KbpsChannel(s) : 1 channelChannel positions : Front: CSampling rate : 48.0 KHzBit depth : 16 bitsCompression mode : LossyStream size : 17.6 MiB (6%)Alignment : Split accross interleavesInterleave, duration : 40 ms (1.00 video frame)Interleave, preload duration : 500 ms
[Профиль] [ЛС]
Показать сообщения:    

Текущее время: Сегодня 04:30

Часовой пояс: GMT



Вы не можете начинать темы
Вы не можете отвечать на сообщения
Вы не можете редактировать свои сообщения
Вы не можете удалять свои сообщения
Вы не можете голосовать в опросах
Вы не можете прикреплять файлы к сообщениям
Вы не можете скачивать файлы