Арба (Л. Бабаханов) [1978, Узбекфильм, кукольная анимация, TeleSynch]

 
Автор Сообщение

TorrentFilm ®

Пол:

Стаж: 1 год 11 месяцев

Сообщений: 7741



Награды: Нет

Торрент-статистика

Создавать темы 01-Янв-2016 00:17

[Цитировать]

Арба
Страна: СССР
Жанр: кукольная анимация
Продолжительность: 00:09:22
Год выпуска: 1978
Перевод: Не требуется
Русские субтитры: нет
Режиссёр: Л. Бабаханов
Описание: Старик ехал на арбе на базар. Дорога пролегала через гору и лошадь начала упираться и отказалась тянуть арбу. Старик всячески пытался заставить лошадь подняться в гору, но так ничего и не смог поделать. И только с помощью доброты и взаимопомощи старику удалось переправиться через гору.
Доп. информация: Фильм оцифрован с киноплёнки 16-мм из личной коллекции. Качество картинки очень низкое, плёнка сильно повреждена, но другого варианта этого мультфильма в сети нет.
Качество: TeleSynch
Формат: AVI
Видео: XviD, 4:3, 720х544, 25 fps, 1454 kbps
Аудио: МР-3, 48 кHz, 128 kbps, 2 ch (моно)
Субтитры: отсутствуют

Подробные технические данные

ОбщееПолное имя : G:Арба.aviФормат : AVIФормат/Информация : Audio Video InterleaveРазмер файла : 99,7 МбайтПродолжительность : 9 м. 21 с.Общий поток : 1489 Кбит/секПрограмма кодирования : VirtualDubMod 1.5.4.1 (build 2178/release)Библиотека кодирования : VirtualDubMod build 2178/release
ВидеоИдентификатор : 0Формат : MPEG-4 VisualПрофиль формата : Advanced Simple@L5Параметр BVOP формата : 1Параметр QPel формата : НетПараметр GMC формата : Без точки переходаПараметр матрицы формата : ВыборочнаяИдентификатор кодека : XVIDИдентификатор кодека/Подсказка : XviDПродолжительность : 9 м. 21 с.Битрейт : 1354 Кбит/секШирина : 720 пикселейВысота : 544 пикселяСоотношение сторон : 4:3Частота кадров : 25,000 кадров/секЦветовое пространство : YUVСубдискретизация насыщенности : 4:2:0Битовая глубина : 8 битТип развёртки : ПрогрессивнаяМетод сжатия : С потерямиБит/(Пиксели*Кадры) : 0.138Размер потока : 90,6 Мбайт (91%)Библиотека кодирования : XviD 1.2.1 (UTC 2008-12-04)
АудиоИдентификатор : 1Формат : MPEG AudioВерсия формата : Version 1Профиль формата : Layer 3Режим : Joint stereoРасширение режима : MS StereoИдентификатор кодека : 55Идентификатор кодека/Подсказка : MP3Продолжительность : 9 м. 21 с.Вид битрейта : ПостоянныйБитрейт : 128 Кбит/секКаналы : 2 каналаЧастота : 48,0 КГцМетод сжатия : С потерямиРазмер потока : 8,57 Мбайт (9%)Выравнивание : Соединение по промежуткамПродолжительность промежутка : 80 мс. (2,00 видеокадра)Время предзагрузки промежутка : 504 мс.Библиотека кодирования : LAME3.98rНастройки программы : -m j -V 4 -q 2 -lowpass 17 -b 128

Скриншоты

, , , ,
[Профиль] [ЛС]
Кто просматривает тему:

Показать сообщения:    

Текущее время: Сегодня 20:05

Часовой пояс: GMT



Вы не можете начинать темы
Вы не можете отвечать на сообщения
Вы не можете редактировать свои сообщения
Вы не можете удалять свои сообщения
Вы не можете голосовать в опросах
Вы не можете прикреплять файлы к сообщениям
Вы не можете скачивать файлы