Арахнид / Arachnid (Джек Шолдер) [2001 г., ужасы, фантастика, приключения, DVDRip-AVC] [ NVO (Лицензия)]

 
Автор Сообщение

Bathory ®

Пол:

Стаж: 9 месяцев

Сообщений: 169



Награды: 3 (Подробнее)

За внесенный вклад в развитие сайта (Количество: 1) Друг (Количество: 1) Girls (Количество: 1)
Торрент-статистика

Создавать темы 05-Апр-2016 18:58

[Цитировать]

Арахнид / Arachnid- Информация о фильме
Название: Арахнид
Оригинальное название: Arachnid
Год выхода: 2001
Жанр: ужасы, фантастика, приключения
Режиссер: Джек Шолдер
В ролях: Крис Поттер, Алекс Рид, Хосе Санчо, Неус Асенси, Равиль Исянов, Луис Лоренсо Креспо, Рокфорд Аллен, Хесус Кабреро, Робер Виченсио, Эктор Чикин
О фильме:
Привыкшие к новым смертельным вирусам в кино, американские граждане (и зрители) оказались не готовы к ним в реальности. Но мы, приспособленные к фантастике в жизни, добираем недостающий опыт в «Арахниде». На далекий остров в Тихом океане вторглись пришельцы — распространители невиданного еще вируса. Монструозный результат его воздействия — перевоплощение островного населения в гигантских пауков.
Для опознания страшного вируса секретные службы отправляют экспедицию суперпрофессионалов. Но они даже в кошмарном сне не могли представить, какая им грозит нечеловеческая борьба с пауками-каннибалами. Зрелище не для психопатов!

Страна: Испания
Студия: Castelao Producciones, Fantastic Factory (Filmax), Televisió de Catalunya
Продолжительность: 01:31:31
Перевод: Профессиональный (многоголосый, закадровый) лицензия "CP DIGITAL"
Файл
Кодек: AVC
Качество: DVDRip-AVC
Видео: 720x576@1024x576, 1895 kbps, 25 fps, 0,183 Bits/(Pixel*Frame)
Звук: AC3, 48 kHz, 6 ch, 384 kbps - RUS (MVO)
Субтитры: русские

MI

General
Unique ID : 194453139432599993028730452575031678996 (0x924A4FF988AD5CD081ADD6B804985814)
Complete name : E:\Arachnid.2001.DVDRip-AVC_by_Bathory.mkv
Format : Matroska
Format version : Version 4 / Version 2
File size : 1.46 GiB
Duration : 1h 31mn
Overall bit rate : 2 280 Kbps
Encoded date : UTC 2016-04-05 18:22:45
Writing application : mkvmerge v8.6.1 ('Flying') 64bit
Writing library : libebml v1.3.3 + libmatroska v1.4.4
DURATION : 01:25:58.629000000
NUMBER_OF_FRAMES : 570
NUMBER_OF_BYTES : 32781
_STATISTICS_WRITING_APP : mkvmerge v8.6.1 ('Flying') 64bit
_STATISTICS_WRITING_DATE_UTC : 2016-04-05 18:22:45
_STATISTICS_TAGS : BPS DURATION NUMBER_OF_FRAMES NUMBER_OF_BYTES
Video
ID : 1
Format : AVC
Format/Info : Advanced Video Codec
Format profile : High@L4.1
Format settings, CABAC : Yes
Format settings, ReFrames : 12 frames
Codec ID : V_MPEG4/ISO/AVC
Duration : 1h 31mn
Bit rate : 1 895 Kbps
Width : 720 pixels
Height : 576 pixels
Display aspect ratio : 16:9
Frame rate mode : Constant
Frame rate : 25.000 fps
Standard : PAL
Color space : YUV
Chroma subsampling : 4:2:0
Bit depth : 8 bits
Scan type : Progressive
Bits/(Pixel*Frame) : 0.183
Stream size : 1.18 GiB (81%)
Writing library : x264 core 148 r2665 a01e339
Encoding settings : cabac=1 / ref=12 / deblock=1:-2:-1 / analyse=0x3:0x133 / me=umh / subme=11 / psy=1 / psy_rd=1.10:0.10 / mixed_ref=1 / me_range=32 / chroma_me=1 / trellis=2 / 8x8dct=1 / cqm=0 / deadzone=21,11 / fast_pskip=0 / chroma_qp_offset=-3 / threads=12 / lookahead_threads=3 / sliced_threads=0 / nr=0 / decimate=0 / interlaced=0 / bluray_compat=0 / constrained_intra=0 / bframes=14 / b_pyramid=2 / b_adapt=2 / b_bias=0 / direct=3 / weightb=1 / open_gop=0 / weightp=2 / keyint=250 / keyint_min=25 / scenecut=0 / intra_refresh=0 / rc_lookahead=60 / rc=2pass / mbtree=1 / bitrate=1895 / ratetol=1.0 / qcomp=0.70 / qpmin=0 / qpmax=69 / qpstep=4 / cplxblur=15.0 / qblur=0.5 / vbv_maxrate=50000 / vbv_bufsize=62500 / nal_hrd=none / filler=0 / ip_ratio=1.40 / aq=2:1.00
Default : Yes
Forced : No
Audio
ID : 2
Format : AC-3
Format/Info : Audio Coding 3
Mode extension : CM (complete main)
Format settings, Endianness : Big
Codec ID : A_AC3
Duration : 1h 31mn
Bit rate mode : Constant
Bit rate : 384 Kbps
Channel(s) : 6 channels
Channel positions : Front: L C R, Side: L R, LFE
Sampling rate : 48.0 KHz
Bit depth : 16 bits
Compression mode : Lossy
Stream size : 251 MiB (17%)
Default : Yes
Forced : No
Text
ID : 3
Format : UTF-8
Codec ID : S_TEXT/UTF8
Codec ID/Info : UTF-8 Plain Text
Default : Yes
Forced : No

Скриншоты

Анаморфные скриншоты

Автор рипа: Bathory
[Профиль] [ЛС]
Кто просматривает тему:

Показать сообщения:    

Текущее время: Сегодня 10:06

Часовой пояс: GMT



Вы не можете начинать темы
Вы не можете отвечать на сообщения
Вы не можете редактировать свои сообщения
Вы не можете удалять свои сообщения
Вы не можете голосовать в опросах
Вы не можете прикреплять файлы к сообщениям
Вы не можете скачивать файлы