Апокалипсис / Apocalypto (Мэл Гибсон / Mel Gibson) [2006, США, боевик, драма, приключения, BDRip] DVO + Sub (Rus)

 
Автор Сообщение

painkiller ®

Стаж: 2 года 3 месяца

Сообщений: 582



Награды: Нет

Торрент-статистика

Создавать темы 14-Авг-2014 13:00

[Цитировать]

Апокалипсис / Apocalypto
«Империя майя. Участь предрешена»
- Страна: США
Жанр: боевик, драма, приключения
Год выпуска: 2006
Продолжительность: 02:18:21
Перевод: Профессиональный (двухголосый закадровый) Гланц Пётр и Королёва Инна
Cубтитры: Russian, внешние*.srt
Оригинальная аудиодорожка: нет-Режиссер:
Мэл Гибсон / Mel Gibson-В ролях:
Руди Янгблад, Жерардо Тарачена, Далиа Эрнандес, Джонатан Брюер, Родольфо Паласьос, Рауль Трухильо, Моррис Бердиеллоухед-Описание:
В фильме показана жизнь цивилизации майя до прихода испанских конкистадоров: жестокие войны с соседними племенами, человеческие жертвоприношения, загадочные мистические ритуалы. В один день рушится мир индейца по имени Лапа Ягуара. Его деревню захватывает соседнее племя, уничтожая хижины, забирая местных жителей в плен. Его ведут в город, чтобы принести в жертву богам. Перед лицом неминуемой смерти Лапа Ягуара должен побороть свои самые сильные страхи и совершить отчаянный рывок, чтобы спасти то, что ему дорого…-Сэмпл | КиноПоиск | IMDb-Качество видео: BDRip |
Формат видео: AVI
Видео: 704x384 (1.83:1), 23.976 fps, XviD build 65 ~1310 kbps avg, 0.202 bit/pixel
Аудио: 48.0 kHz, AC3 Dolby Digital, 2/0 ch, ~192.00 kbps | DVO
Размер: 1495.90 Mb (1/3 DVD-R)
-

MediaInfo

Общее
Полное имя : A:\Фильмы\Apocalypto.2006\Apocalypto.2006.BDRip.XviD.1.46Gb.AC3.avi
Формат : AVI
Формат/Информация : Audio Video Interleave
Размер файла : 1,46 Гбайт
Продолжительность : 2 ч. 18 м.
Общий поток : 1512 Кбит/сек
Программа кодирования : VirtualDubMod 1.5.10.2 (build 2540/release)
Библиотека кодирования : VirtualDubMod build 2540/release
Видео
Идентификатор : 0
Формат : MPEG-4 Visual
Профиль формата : Advanced Simple@L5
Параметр BVOP формата : 1
Параметр QPel формата : Нет
Параметр GMC формата : Без точки перехода
Параметр матрицы формата : Выборочная
Идентификатор кодека : XVID
Идентификатор кодека/Подсказка : XviD
Продолжительность : 2 ч. 18 м.
Битрейт : 1310 Кбит/сек
Ширина : 704 пикселя
Высота : 384 пикселя
Соотношение сторон : 1,83:1
Частота кадров : 23,976 кадра/сек
Цветовое пространство : YUV
Субдискретизация насыщенности : 4:2:0
Битовая глубина : 8 бит
Тип развёртки : Прогрессивная
Метод сжатия : С потерями
Бит/(Пиксели*Кадры) : 0.202
Размер потока : 1,27 Гбайт (87%)
Библиотека кодирования : XviD 65
Аудио
Идентификатор : 1
Формат : AC-3
Формат/Информация : Audio Coding 3
Расширение режима : CM (complete main)
Параметр Endianness формата : Big
Идентификатор кодека : 2000
Продолжительность : 2 ч. 18 м.
Вид битрейта : Постоянный
Битрейт : 192 Кбит/сек
Каналы : 2 канала
Расположение каналов : Front: L R
Частота : 48,0 КГц
Битовая глубина : 16 бит
Метод сжатия : С потерями
Размер потока : 190 Мбайт (13%)
Выравнивание : Разделение по промежуткам
Продолжительность промежутка : 42 мс. (1,00 видеокадр)
Время предзагрузки промежутка : 500 мс.
Заголовок: DVO

Скриншот c названием фильма

Скриншоты

[Профиль] [ЛС]

Создавать темы 06-Авг-2015 23:14 (спустя 11 месяцев 23 дня)

Топик был перенесен из форума Фильмы до 2014 года в форум Фильмы до 2012 года
sergej644
 
Показать сообщения:    

Текущее время: Сегодня 20:42

Часовой пояс: GMT



Вы не можете начинать темы
Вы не можете отвечать на сообщения
Вы не можете редактировать свои сообщения
Вы не можете удалять свои сообщения
Вы не можете голосовать в опросах
Вы не можете прикреплять файлы к сообщениям
Вы не можете скачивать файлы