Апокалипсис сегодня / Apocalypse Now (1979) BDRip 720p от NoLimits-Team | Redux version

 
Автор Сообщение

Russian Mafia ®

Пол:

Стаж: 1 год 8 месяцев

Сообщений: 4246



Награды: 10 (Подробнее)

Top Releaser 4 (Количество: 1) Mega Seeder 2 (Количество: 1) Top Releaser 2 (Количество: 1)
Торрент-статистика

Создавать темы 13-Сен-2015 14:23

[Цитировать]

Информация о фильме
Название: Апокалипсис сегодня
Оригинальное название: Apocalypse Now
Год выхода: 1979
Жанр: Военная драма
Режиссер: Френсис Форд Коппола
Выпущено: США
Продолжительность: 03:16:09
Перевод: Многоголосый закадровый (Киномания), Авторский одноголосый (Дмитрий Пучков)
В ролях: Марлон Брандо, Мартин Шин, Роберт Дювалл, Фредерик Форрест, Сэм Боттомс, Лоренс Фишбёрн, Альберт Холл, Харрисон Форд, Деннис Хоппер, Г.Д. Спрэдлин-Сюжет фильма
Во время войны во Вьетнаме спецагент отправляется вверх по реке в Камбоджу с приказом найти и убить полусумасшедшего полковника, создавшего в отдаленном районе нечто вроде собственного королевства насилия. По пути мы видим почти сюрреалистический мир ужасов войны.-Файл
Качество: BDRip 720p (DVD9) (исходник Blu-ray Remux )
Видео: 1280x544, 4452 Кбит/сек, 23,976 кадр/сек, AVC, x264, High@L4.1, 2.35:1, 0.267 Бит/[Пиксели*Кадры], 2pass
Аудио 1: AC-3, 448 Кбит/сек, 6 канала(ов), 48,0 КГц - Многоголосый закадровый (Киномания) / Русский (Установлен по умолчанию)
Аудио 2: AC-3, 448 Кбит/сек, 6 канала(ов), 48,0 КГц - Авторский одноголосый (Дмитрий Пучков) / Русский
Аудио 3: AC-3, 448 Кбит/сек, 6 канала(ов), 48,0 КГц - Оригинал / Английский
Субтитры: Русские | Полные
Чаптеры: Есть- -

Скриншоты

MediaInfo

Format : Matroska
Format version : Version 4 / Version 2
File size : 7.95 GiB
Duration : 3h 16mn
Overall bit rate : 5 799 Kbps
Movie name : Апокалипсис сегодня.(1979).BDRip.720p.(DVD9).[NoLimits-Team]
Encoded date : UTC 2013-05-29 16:07:24
Writing application : mkvmerge v6.0.0 ('Coming Up For Air') built on Jan 20 2013 09:52:00
Writing library : libebml v1.3.0 + libmatroska v1.4.0
Video
ID : 1
Format : AVC
Format/Info : Advanced Video Codec
Format profile : High@L4.1
Format settings, CABAC : Yes
Format settings, ReFrames : 12 frames
Codec ID : V_MPEG4/ISO/AVC
Duration : 3h 16mn
Bit rate : 4 452 Kbps
Width : 1 280 pixels
Height : 544 pixels
Display aspect ratio : 2.35:1
Frame rate mode : Constant
Frame rate : 23.976 fps
Color space : YUV
Chroma subsampling : 4:2:0
Bit depth : 8 bits
Scan type : Progressive
Bits/(Pixel*Frame) : 0.267
Stream size : 5.95 GiB (75%)
Title : Апокалипсис сегодня.(1979).BDRip.720p.(DVD9).[NoLimits-Team]
Writing library : x264 core 133 r2334 a3ac64b
Encoding settings : cabac=1 / ref=12 / deblock=1:0:0 / analyse=0x3:0x133 / me=umh / subme=11 / psy=1 / psy_rd=1.00:0.00 / mixed_ref=1 / me_range=64 / chroma_me=1 / trellis=2 / 8x8dct=1 / cqm=0 / deadzone=21,11 / fast_pskip=0 / chroma_qp_offset=-2 / threads=9 / lookahead_threads=2 / sliced_threads=0 / nr=0 / decimate=1 / interlaced=0 / bluray_compat=0 / constrained_intra=0 / bframes=14 / b_pyramid=2 / b_adapt=2 / b_bias=0 / direct=3 / weightb=1 / open_gop=0 / weightp=2 / keyint=240 / keyint_min=23 / scenecut=40 / intra_refresh=0 / rc_lookahead=60 / rc=2pass / mbtree=1 / bitrate=4452 / ratetol=1.0 / qcomp=0.60 / qpmin=0 / qpmax=69 / qpstep=4 / cplxblur=20.0 / qblur=0.5 / ip_ratio=1.40 / aq=1:1.00
Language : English
Default : Yes
Forced : No
Audio #1
ID : 2
Format : AC-3
Format/Info : Audio Coding 3
Mode extension : CM (complete main)
Format settings, Endianness : Big
Codec ID : A_AC3
Duration : 3h 16mn
Bit rate mode : Constant
Bit rate : 448 Kbps
Channel(s) : 6 channels
Channel positions : Front: L C R, Side: L R, LFE
Sampling rate : 48.0 KHz
Bit depth : 16 bits
Compression mode : Lossy
Stream size : 629 MiB (8%)
Title : Профессиональный многоголосый (Киномания)
Language : Russian
Default : Yes
Forced : No
Audio #2
ID : 3
Format : AC-3
Format/Info : Audio Coding 3
Mode extension : CM (complete main)
Format settings, Endianness : Big
Codec ID : A_AC3
Duration : 3h 16mn
Bit rate mode : Constant
Bit rate : 448 Kbps
Channel(s) : 6 channels
Channel positions : Front: L C R, Side: L R, LFE
Sampling rate : 48.0 KHz
Bit depth : 16 bits
Compression mode : Lossy
Stream size : 629 MiB (8%)
Title : Авторский одноголосый (Дмитрий Пучков)
Language : Russian
Default : No
Forced : No
Audio #3
ID : 4
Format : AC-3
Format/Info : Audio Coding 3
Mode extension : CM (complete main)
Format settings, Endianness : Big
Codec ID : A_AC3
Duration : 3h 16mn
Bit rate mode : Constant
Bit rate : 448 Kbps
Channel(s) : 6 channels
Channel positions : Front: L C R, Side: L R, LFE
Sampling rate : 48.0 KHz
Bit depth : 16 bits
Compression mode : Lossy
Stream size : 629 MiB (8%)
Title : Английский
Language : English
Default : No
Forced : No
Text
ID : 5
Format : UTF-8
Codec ID : S_TEXT/UTF8
Codec ID/Info : UTF-8 Plain Text
Title : Русские (полные)
Language : Russian
Default : No
Forced : No
Menu
00:05:00.000 : :Chapter 01
00:10:00.000 : :Chapter 02
00:15:00.000 : :Chapter 03
00:25:00.000 : :Chapter 04
00:35:00.000 : :Chapter 05
00:45:00.000 : :Chapter 06
00:55:00.000 : :Chapter 07
01:05:00.000 : :Chapter 08
01:15:00.000 : :Chapter 09
01:25:00.000 : :Chapter 10
01:35:00.000 : :Chapter 11
01:45:00.000 : :Chapter 12
01:55:00.000 : :Chapter 13
02:05:00.000 : :Chapter 14
02:15:00.000 : :Chapter 15
02:25:00.000 : :Chapter 16
02:35:00.000 : :Chapter 17
02:45:00.000 : :Chapter 18
02:55:00.000 : :Chapter 19
03:05:00.000 : :Chapter 20
-
[Профиль] [ЛС]
Показать сообщения:    

Текущее время: Сегодня 02:37

Часовой пояс: GMT



Вы не можете начинать темы
Вы не можете отвечать на сообщения
Вы не можете редактировать свои сообщения
Вы не можете удалять свои сообщения
Вы не можете голосовать в опросах
Вы не можете прикреплять файлы к сообщениям
Вы не можете скачивать файлы