Апокалипсис сегодня / Apocalypse Now (1979) BDRip 1080p от NNNB | P, A | Redux

 
Автор Сообщение

Russian Mafia ®

Пол:

Стаж: 1 год 8 месяцев

Сообщений: 4257



Награды: 10 (Подробнее)

Top Releaser 5 (Количество: 1) За внесенный вклад в развитие сайта (Количество: 1) Mega Seeder 4 (Количество: 1)
Торрент-статистика

Создавать темы 13-Сен-2015 14:22

[Цитировать]

- Информация о фильме
Русское название: Апокалипсис сегодня
Оригинальное название: Apocalypse Now
Год выхода: 1979
Жанр: драма, военный
Режиссер: Френсис Форд Коппола
Выпущено: США
Продолжительность: 03:16:04
Перевод: Профессиональный (многоголосый закадровый), Авторский (одноголосый закадровый)
В ролях: Марлон Брандо, Мартин Шин, Роберт Дювалл, Фредерик Форрест, Сэм Боттомс, Лоренс Фишбёрн, Альберт Холл, Харрисон Форд, Деннис Хоппер, Г.Д. Спрэдлин-Сюжет фильма
Во время войны во Вьетнаме спецагент отправляется вверх по реке в Камбоджу с приказом найти и убить полусумасшедшего полковника, создавшего в отдаленном районе нечто вроде собственного королевства насилия. По пути мы видим почти сюрреалистический мир ужасов войны.-Файл
Качество: BDRip 1080p (исходник Blu-ray Disc US)
Видео: 1920x816, 9815 Кбит/сек, 23,976 кадр/сек, AVC, x264, High@L4.1, 2.35:1, 0.261 Бит/[Пиксели*Кадры]
Аудио 1: AC-3, 448 Кбит/сек, 6 канала(ов), 48,0 КГц - Многоголосый закадровый, Союз Видео / Русский
Аудио 2: AC-3, 448 Кбит/сек, 6 канала(ов), 48,0 КГц - Многоголосый закадровый, Киномания / Русский | -5750ms*
Аудио 3: AC-3, 384 Кбит/сек, 6 канала(ов), 48,0 КГц - Многоголосый закадровый, Позитив / Русский | -5750ms*
Аудио 4: AC-3, 448 Кбит/сек, 6 канала(ов), 48,0 КГц - Одноголосый закадровый, Д.Пучков (Гоблин) / Русский (Присутствует ненормативная лексика) | -5750ms*
Аудио 5: AC-3, 640 Кбит/сек, 6 канала(ов), 48,0 КГц - Оригинал / Английский
Субтитры: Русские | Полные (2 вида)**, Английские | Полные
Форсированные субтитры: Нет
Чаптеры (Главы): Есть- Автор Рипа: -

Скриншоты

MI

Format : Matroska
Format version : Version 2
File size : 16.7 GiB
Duration : 3h 16mn
Overall bit rate : 12.2 Mbps
Movie name : Апокалипсис сегодня.Redux.(1979).BDRip.1080p.[envy]
Encoded date : UTC 2015-02-21 11:08:15
Writing application : mkvmerge v5.8.0 ('No Sleep / Pillow') built on Sep 2 2012 15:37:04
Writing library : libebml v1.2.3 + libmatroska v1.3.0
Video
ID : 1
Format : AVC
Format/Info : Advanced Video Codec
Format profile : High@L4.1
Format settings, CABAC : Yes
Format settings, ReFrames : 5 frames
Codec ID : V_MPEG4/ISO/AVC
Duration : 3h 16mn
Bit rate : 9 815 Kbps
Width : 1 920 pixels
Height : 816 pixels
Display aspect ratio : 2.35:1
Frame rate mode : Constant
Frame rate : 23.976 fps
Color space : YUV
Chroma subsampling : 4:2:0
Bit depth : 8 bits
Scan type : Progressive
Bits/(Pixel*Frame) : 0.261
Stream size : 13.1 GiB (79%)
Title : Апокалипсис сегодня.Redux.(1979).BDRip.1080p.[envy]
Writing library : x264 core 144 r2525 40bb568
Encoding settings : cabac=1 / ref=5 / deblock=1:-3:-2 / analyse=0x3:0x133 / me=umh / subme=11 / psy=1 / psy_rd=1.00:0.00 / mixed_ref=1 / me_range=32 / chroma_me=1 / trellis=2 / 8x8dct=1 / cqm=0 / deadzone=21,11 / fast_pskip=0 / chroma_qp_offset=-2 / threads=12 / lookahead_threads=2 / sliced_threads=0 / nr=0 / decimate=1 / interlaced=0 / bluray_compat=0 / constrained_intra=0 / bframes=7 / b_pyramid=2 / b_adapt=2 / b_bias=0 / direct=3 / weightb=1 / open_gop=0 / weightp=2 / keyint=240 / keyint_min=23 / scenecut=40 / intra_refresh=0 / rc=2pass / mbtree=0 / bitrate=9815 / ratetol=2.0 / qcomp=0.60 / qpmin=0 / qpmax=69 / qpstep=4 / cplxblur=20.0 / qblur=0.5 / ip_ratio=1.40 / pb_ratio=1.30 / aq=2:1.00
Language : English
Default : Yes
Forced : No
Audio #1
ID : 2
Format : AC-3
Format/Info : Audio Coding 3
Mode extension : CM (complete main)
Format settings, Endianness : Big
Codec ID : A_AC3
Duration : 3h 16mn
Bit rate mode : Constant
Bit rate : 448 Kbps
Channel(s) : 2 channels
Channel positions : Front: L R
Sampling rate : 48.0 KHz
Bit depth : 16 bits
Compression mode : Lossy
Stream size : 628 MiB (4%)
Title : MVO SojuzVideo
Language : Russian
Default : Yes
Forced : No
Audio #2
ID : 3
Format : AC-3
Format/Info : Audio Coding 3
Mode extension : CM (complete main)
Format settings, Endianness : Big
Codec ID : A_AC3
Duration : 3h 16mn
Bit rate mode : Constant
Bit rate : 448 Kbps
Channel(s) : 6 channels
Channel positions : Front: L C R, Side: L R, LFE
Sampling rate : 48.0 KHz
Bit depth : 16 bits
Compression mode : Lossy
Delay relative to video : 10ms
Stream size : 628 MiB (4%)
Title : MVO kinomanija
Language : Russian
Default : No
Forced : No
Audio #3
ID : 4
Format : AC-3
Format/Info : Audio Coding 3
Mode extension : CM (complete main)
Format settings, Endianness : Big
Codec ID : A_AC3
Duration : 3h 16mn
Bit rate mode : Constant
Bit rate : 384 Kbps
Channel(s) : 6 channels
Channel positions : Front: L C R, Side: L R, LFE
Sampling rate : 48.0 KHz
Bit depth : 16 bits
Compression mode : Lossy
Delay relative to video : 10ms
Stream size : 539 MiB (3%)
Title : MVO Pozitiv
Language : Russian
Default : No
Forced : No
Audio #4
ID : 5
Format : AC-3
Format/Info : Audio Coding 3
Mode extension : CM (complete main)
Format settings, Endianness : Big
Codec ID : A_AC3
Duration : 3h 16mn
Bit rate mode : Constant
Bit rate : 448 Kbps
Channel(s) : 6 channels
Channel positions : Front: L C R, Side: L R, LFE
Sampling rate : 48.0 KHz
Bit depth : 16 bits
Compression mode : Lossy
Delay relative to video : 10ms
Stream size : 628 MiB (4%)
Title : Goblin
Language : Russian
Default : No
Forced : No
Audio #5
ID : 6
Format : AC-3
Format/Info : Audio Coding 3
Mode extension : CM (complete main)
Format settings, Endianness : Big
Codec ID : A_AC3
Duration : 3h 16mn
Bit rate mode : Constant
Bit rate : 640 Kbps
Channel(s) : 2 channels
Channel positions : Front: L R
Sampling rate : 48.0 KHz
Bit depth : 16 bits
Compression mode : Lossy
Stream size : 898 MiB (5%)
Title : Eng
Language : English
Default : No
Forced : No
Text #1
ID : 7
Format : UTF-8
Codec ID : S_TEXT/UTF8
Codec ID/Info : UTF-8 Plain Text
Title : Rus full
Language : Russian
Default : No
Forced : No
Text #2
ID : 8
Format : UTF-8
Codec ID : S_TEXT/UTF8
Codec ID/Info : UTF-8 Plain Text
Title : Goblin full
Language : Russian
Default : No
Forced : No
Text #3
ID : 9
Format : UTF-8
Codec ID : S_TEXT/UTF8
Codec ID/Info : UTF-8 Plain Text
Title : Eng full
Language : English
Default : No
Forced : No
Menu
00:00:00.000 : :Chapter 01
00:09:18.558 : :Chapter 02
00:20:18.675 : :Chapter 03
00:24:05.110 : :Chapter 04
00:31:09.367 : :Chapter 05
00:34:05.626 : :Chapter 06
00:44:57.277 : :Chapter 07
00:51:59.908 : :Chapter 08
01:03:22.006 : :Chapter 09
01:17:05.037 : :Chapter 10
01:34:13.689 : :Chapter 11
01:39:31.965 : :Chapter 12
01:49:14.965 : :Chapter 13
01:54:56.931 : :Chapter 14
02:27:35.346 : :Chapter 15
02:36:19.912 : :Chapter 16
02:45:13.445 : :Chapter 17
03:03:04.348 : :Chapter 18
03:10:04.434 : :Chapter 19
-

Соотношение сторон экрана ИЛИ как картинка будет выглядеть у вас на экране

Самые распространенные форматы изображения:
-* - Звуковая дорожка была смещена программно. Рассинхрона звук/видео нету! Проверено.
** - 1.Русские полные субтитры. 2.Русские субтитры от Д.Пучкова, присутствуют нецензурные выражения
Redux - Переизданная режиссерская версия 2001 года.
В 2001 году компания Zoetrope Studios выпустила режиссёрскую версию фильма, которая получила название «Апокалипсис сегодня возвращается» (англ. Apocalypse Now Redux). В выпуске этой редакции также принимал участие Витторио Стораро, который придумал свой собственный метод восстановления цвета на киноплёнке, чтобы подготовить фильм к новому выпуску.-
[Профиль] [ЛС]
Показать сообщения:    

Текущее время: Сегодня 18:30

Часовой пояс: GMT



Вы не можете начинать темы
Вы не можете отвечать на сообщения
Вы не можете редактировать свои сообщения
Вы не можете удалять свои сообщения
Вы не можете голосовать в опросах
Вы не можете прикреплять файлы к сообщениям
Вы не можете скачивать файлы