Апокалипсис сегодня / Apocalypse Now (1979) BDRip 720p от HQ-ViDEO | P, A | Redux Version

 
Автор Сообщение

Russian Mafia ®

Пол:

Стаж: 1 год 8 месяцев

Сообщений: 4246



Награды: 10 (Подробнее)

Mega Seeder 3 (Количество: 1) Mega Seeder 4 (Количество: 1) Top Releaser 4 (Количество: 1)
Торрент-статистика

Создавать темы 13-Сен-2015 14:18

[Цитировать]

Информация о фильме
Название: Апокалипсис сегодня
Оригинальное название: Apocalypse Now [Redux Version]
Год выхода: 1979
Жанр: драма, военный
Режиссер: Френсис Форд Коппола /Francis Ford Coppola/
В ролях: Мартин Шин /Martin Sheen/, Марлон Брандо /Marlon Brando/, Роберт Дювалл /Robert Duvall/,Фредерик Форрест /Frederic Forrest/, Сэм Боттомс /Sam Bottoms/, Лоуренс Фишбёрн /Laurence Fishburne/, Альберт Холл /Albert Hall/, Харрисон Форд /Harrison Ford/, Деннис Хоппер /Dennis Hopper/, Г.Д. Спрэдлин /G.D. Spradlin/, Френсис Форд Коппола /Francis Ford Coppola/...
О фильме:
Во время войны во Вьетнаме спецагент отправляется вверх по реке в Камбоджу с приказом найти и убить полусумасшедшего полковника, создавшего в отдаленном районе нечто вроде собственного королевства насилия. По пути мы видим почти сюрреалистический мир ужасов войны.

ЦитатаКто-то писал:Redux Version или Новая режиссёрская версия - это пермонтированная в 2001 году версия фильма.

Материалы, не вошедшие в оригинальную версию фильма

- Смешной эпизод, в котором команда катера, на котором плывёт Уиллард, крадёт у полковника Килгора доску для сёрфинга.
- После сцены с танцами девушек из «Плейбоя» следует эпизод, когда Уиллард со своей командой встречают этих же девушек и их сопровождающих, у которых в вертолёте закончилось топливо, и они ждут, что кто-нибудь их подберёт. Уиллард договаривается об обмене двух бочек топлива на два часа с девушками для своих солдат. Одна из девушек рассказывает историю своей жизни и говорит о своём восприятии позора и сексуальной эксплуатации.
- Вскоре после смерти мистера Клина команда наталкивается на каучуковую плантацию, которую защищают французы, колонизировавшие эти места много лет назад. Они помогают похоронить Клина и затем приглашают солдат на обед, который длится долго и сопровождается разнообразными разговорами о войне, её причинах и методах её ведения. Потом Уиллард остаётся вдвоём с французской вдовой, они курят опиум и проводят вместе ночь.
- В селении Курца последний, окружённый вьетнамскими детьми, читает Уилларду статью из журнала «Тайм» о вьетнамской войне. Это единственная сцена, в которой Курц появляется при дневном свете.
Страна: США
Продолжительность: 03:16:09
Перевод: Русский профессиональный, многоголосый (Киномания)
Файл
Кодек: MKV, H.264
Качество: BDRip 720p (Source: Blu-ray Disc)
Видео: 5212 kbps; 0.312 bit/pixel; 1280 x 544; 2.35:1; 23.976 fps
Звук #1: AC3 Dolby Digital; 448.00 kbps, 6 Ch - MVO Kinomaniya

MediaInfo

General
Complete name : Apokalipsis.Segodnya.1979.RUS.BDRip.720p.h264.AC3.-HQ-ViDEO.mkv
Format : Matroska
File size : 7.91 GiB
Duration : 3h 16mn
Overall bit rate : 5 775 Kbps
Movie name : Apocalypse Now (1979)
Encoded date : UTC 2011-01-14 08:55:32
Writing application : mkvmerge v3.3.0 ('Language') built on Mar 24 2010 14:59:24
Writing library : libebml v0.8.0 + libmatroska v0.9.0
Video
ID : 1
Format : AVC
Format/Info : Advanced Video Codec
Format profile : High@L4.1
Format settings, CABAC : Yes
Format settings, ReFrames : 6 frames
Muxing mode : Container profile=Unknown@4.1
Codec ID : V_MPEG4/ISO/AVC
Duration : 3h 15mn
Bit rate : 5 212 Kbps
Width : 1 280 pixels
Height : 544 pixels
Display aspect ratio : 2.35:1
Frame rate : 23.976 fps
Resolution : 8 bits
Colorimetry : 4:2:0
Scan type : Progressive
Bits/(Pixel*Frame) : 0.312
Stream size : 7.13 GiB (90%)
Title : Encoded by GYN
Audio
ID : 2
Format : AC-3
Format/Info : Audio Coding 3
Codec ID : A_AC3
Duration : 3h 16mn
Bit rate mode : Constant
Bit rate : 448 Kbps
Channel(s) : 6 channels
Channel positions : Front: L C R, Surround: L R, LFE
Sampling rate : 48.0 KHz
Stream size : 629 MiB (8%)
Title : MVO
Language : Russian
Text #1
ID : 3
Format : UTF-8
Codec ID : S_TEXT/UTF8
Codec ID/Info : UTF-8 Plain Text
Title : Goblin
Language : Russian
Text #2
ID : 4
Format : UTF-8
Codec ID : S_TEXT/UTF8
Codec ID/Info : UTF-8 Plain Text
Language : English

Скриншоты




[Профиль] [ЛС]
Показать сообщения:    

Текущее время: Сегодня 09:52

Часовой пояс: GMT



Вы не можете начинать темы
Вы не можете отвечать на сообщения
Вы не можете редактировать свои сообщения
Вы не можете удалять свои сообщения
Вы не можете голосовать в опросах
Вы не можете прикреплять файлы к сообщениям
Вы не можете скачивать файлы