Антураж / Entourage (Даг Эллин / Doug Ellin) [2015, США, комедия, HDRip] Dub

 
Автор Сообщение

TorrentFilm ®

Пол:

Стаж: 2 года

Сообщений: 7741



Награды: Нет

Торрент-статистика

Создавать темы 17-Окт-2015 10:14

[Цитировать]

Антураж / Entourage- Страна: США | USA
Жанр: комедия
Год выпуска: 2015
Продолжительность: 01:44:27
Перевод: Профессиональный (дублированный)
Cубтитры: нет-Режиссер: Даг Эллин / Doug Ellin-В ролях: Кевин Коннолли, Эдриан Гренье, Кевин Диллон, Джерри Феррара, Джереми Пивен, Эммануэль Шрики, Хэйли Джоэл Осмент, Ронда Раузи, Рекс Ли, Билли Боб Торнтон.-Описание: Молодые ребята снимают фильмы и решают обосноваться в Голливуде, но как сделать это? История о том, как люди взбираются на кинематографический Олимп, преодолевая трудности с иронией и юмором. Их четверо. Им приходится принять условия и действовать в рамках их, чтобы их работу приняли и позволили пополнить список самых известных людей. Главный герой – Винс, желающий поставить Голливуд на колени. Но удастся ли ему достигнуть хоть чего-нибудь в этом опасном, жестоком и хитром мире американского кино? Или группа его помощника распадется, а он окажется на дне.… Насколько трудно быть частью этого загадочного и конкурентного мира? Сюжет расскажет о взлетах и падениях, на примере желающих стать популярными.-Download sample-Качество видео: HDRip (Scarabey)
Формат видео: AVI
Видео: 688x288 (2.35:1), 23.976 fps, XviD build 73 ~864 kbps avg, 0.18 bit/pixel
Аудио: 48 kHz, MPEG Layer 3, 2 ch, ~128.00 kbps avg

Инфо

Format : AVI
Format/Info : Audio Video Interleave
File size : 748 MiB
Duration : 1h 44mn
Overall bit rate : 1 001 Kbps
Writing application : VirtualDubMod 1.5.10.3 | www.virtualdub-fr.org || (build 2550/release)
Writing library : VirtualDubMod build 2550/release
Video
ID : 0
Format : MPEG-4 Visual
Format profile : Advanced Simple@L5
Format settings, BVOP : Yes
Format settings, QPel : No
Format settings, GMC : No warppoints
Format settings, Matrix : Custom
Codec ID : XVID
Codec ID/Hint : XviD
Duration : 1h 44mn
Bit rate : 864 Kbps
Width : 688 pixels
Height : 288 pixels
Display aspect ratio : 2.35:1
Frame rate : 23.976 fps
Color space : YUV
Chroma subsampling : 4:2:0
Bit depth : 8 bits
Scan type : Progressive
Bits/(Pixel*Frame) : 0.182
Stream size : 645 MiB (86%)
Writing library : XviD 73
Audio
ID : 1
Format : MPEG Audio
Format version : Version 1
Format profile : Layer 3
Codec ID : 55
Codec ID/Hint : MP3
Duration : 1h 44mn
Bit rate mode : Constant
Bit rate : 128 Kbps
Channel(s) : 2 channels
Sampling rate : 48.0 KHz
Stream size : 95.6 MiB (13%)
Alignment : Aligned on interleaves
Interleave, duration : 42 ms (1.00 video frame)
Interleave, preload duration : 504 ms
Writing library : LAME3.99r
Encoding settings : -m s -V 4 -q 2 -lowpass 17 -b 128

Скриншоты

[Профиль] [ЛС]
Показать сообщения:    

Текущее время: Сегодня 04:23

Часовой пояс: GMT



Вы не можете начинать темы
Вы не можете отвечать на сообщения
Вы не можете редактировать свои сообщения
Вы не можете удалять свои сообщения
Вы не можете голосовать в опросах
Вы не можете прикреплять файлы к сообщениям
Вы не можете скачивать файлы