Антология Антитеррора. Серии 1-3 (из 12) (Евгений Спиваков) [2015, Документальный, HDTV 720p]

 
Автор Сообщение

TorrentFilm ®

Пол:

Стаж: 2 года

Сообщений: 7741



Награды: Нет

Торрент-статистика

Создавать темы 27-Мар-2015 00:03

[Цитировать]

Антология Антитеррора. Серии 1-9 (из 12)- Год выпуска: 2015
Страна: Россия
Канал: Россия HD | ООО "Сурер реалити"
Жанр: Документальный
Общая продолжительность: 3:58:01
Режиссер: Евгений Спиваков
Ведущий: Владимир Машков-Описание: Авторы проекта пытаются ответить на вопросы: кто такие террористы, кому выгодны человеческие жертвы, как люди попадают в ловушки идеологов насилия. 12 фильмов насыщены информацией: мнения, цифры и факты от политиков, психологов и религиоведов, воспоминания ветеранов антитеррористических подразделений, эксклюзивные интервью и оперативные съемки спецслужб.-Автор рипа: lrn
Автор записи: Files-х
Сэмпл: sendfile-Тип релиза: HDTV 720p
Контейнер: MKV
Видео: 1280x720 (16:9), 25,000 fps, H264, ~4000 kbps avg, ~0.174 bit/pixel
Аудио: 48 kHz, AC3 Dolby Digital, 2/0 (L,R) ch, ~192.00 kbps avg-

Список и продолжительность серийСерия №1 - "Кавказкий Спрут" (0:24:38)

Террор с акцентом? Откуда взялся современный терроризм, где его корни и какие социальные или политические явления движут скрытыми пружинами и рычагами этой "чумы ХХI" века? Госдеп США рассматривает Россию в качестве зоны своих геополитических интересов. Движение НАТО к нашим границам, провоцирование Грузии на войну в Южной Осетии, втягивание Украины в НАТО, размещение элементов ПРО в Польше и Чехии. Совершенно ясно, что такого рода геополитические сдвиги не имеют какой-то идеологической подоплеки. Они могут иметь только финансовую цель, достижение которой требует геополитических корректировок.

Серия №2 - "Патриоты" (0:25:39)

В основе фильма история народных дружинников из дагестанского селения Хаджалмахи. Отряд добровольцев при поддержке государства защищает свое село от пагубного воздействия идеологии ваххабизма. Добровольные защитники взаимодействуют с полицией, способствуют выявлению лиц, причастных к бандподполью, помогают в борьбе с провокаторами-экстремистами. Учитывая то, что селение Хаджалмахи является одним из древнейших в Дагестане, там до сих пор соблюдают и чтят национальные традиции. Пример Хаджалмахи - яркое доказательство того, как должны жить и живут настоящие мусульмане на Кавказе.

Серия №3 - "Разные Судьбы Одной Веры" (0:26:43)

Фильм о судьбах женщин с разными идеологическими взглядами и целями в жизни, волей судьбы связанных с исламом и мусульманскими странами, но находящихся по разные стороны одной духовной веры и способов ее восприятия. Одна из них – Анхар Кочнева - заложница террористов, сбежавшая из плена сирийских боевиков. Другая – Алла Сапрыкина - террористка-смертница, взорвавшаяся в доме шейха Саида-афанди аль-Чиркави и лишившая жизни невинных людей. Кроме самого шейха тогда погибли пять прихожан, в том числе 12-летний ребенок.

Серия №4 - "Дорога в Один Конец" (0:28:39)

Суды присяжных над террористами. Процесс с Заремой Мужахоевой – яркий пример. Как бы не построила защиту ее адвокат Наталья Евлапова, невозможно переубедить людей, что женщина, надевшая пояс шахида, действительно раскаялась. Впервые Зарема Мужахоева расскажет о том, как она жила все эти годы, о чем мечтала и сожалела. Когда боевика настигает правосудие, его подельники списывают его со счетов. Он уже им не интересен, и им неважно, что будет с ним дальше. Никто не выделяет средства на адвоката, не помогает родственникам. Преступник становится позором рода. Перед зрительской аудиторией появляется образ обманутого радикальной пропагандой моджахеда, который стал марионеткой в руках заинтересованных лиц.

Серия №5 - "Выбор" (0:25:52)

В основе фильма - судьбы трех молодых людей, двое из которых встали на путь экстремизма, а третий предпочел спасать людей от таких, как они. Они пытались найти себя в жизни, однако попали под влияние вербовщиков, в результате чего оказались вовлечены в террористическую деятельность. Оба боевика были ликвидированы в результате контртеррористической операции в Республике Дагестан.

Серия №6 - "Дорога к Миру" (0:26:21)

Сегодня духовным наставникам приходится восполнять пробелы в религиозном образовании и воспитании, возникшие за десятилетия советской эпохи. В СССР религия не поощрялась, а с распадом Союза религиозными идеологами становились совершенно случайные люди. В страну хлынул поток эмиссаров самых разных исламских течений и джамаатов. Среди этих миссионеров и вчерашних учеников духовных школ было немало последователей салафизма. Вернувшись в Россию, они стали пропагандировать ислам именно с этих позиций. Специалисты уверены, почти все идейные террористы оказываются обыкновенными уголовниками. Религию они выбирают в качестве удобного прикрытия, ведь, выдвигая громкие лозунги, очень легко оправдать свои кровавые преступления. Религиозные деятели, а также востоковеды расскажут о природе ваххабизма и его опасности.

Серия №7 - "Ген Террора" (0:26:22)

Сенсационное открытие британских ученых. Обнаружена взаимосвязь между мутациями в одном из генов и проявлениями агрессивности у детей. Однако даже при наличии генетических отклонений многое зависит от среды, в которой растет ребенок, и от того, кто занимается его воспитанием. Сможет ли сын террориста, родившийся в атмосфере агрессии и ненависти, стать обычным парнем, живущим по соседству? Да, если доброта и терпение тех, кто будет с ним рядом, не дадут развиться и окрепнуть гену террора.

Серия №8 - "Возвращение" (0:27:18)

В основе фильма – реальные истории бывших "лесных братьев". Несколько лет назад они были завербованы в бандгруппу. Они расскажут, как на самом деле живется в лесу, о чем мечтают и о чем сожалеют новички, и что предпринимают командиры, чтобы удержать их в бандгруппе. Сегодня у бывших участников бандподполья есть своя пекарня, кузница, строительная фирма. В подчинении - десятки людей. Насколько сложно боевикам вернуться к мирной жизни? И кому выпадает такой шанс?

Серия №9 - "Спасти и Сохранить" (0:26:25)

Любой эксцесс с участием невинных жертв начинается с попыток мирного выхода из конфликта, даже если их предпринимают переговорщики спецназа. Все они проходят всесторонний отбор на должность, участвуют в переговорных тренингах и ролевых играх, обмениваются практическим опытом и знаниями с такими же специалистами из других стран. Первое правило, выведенное путем проб и ошибок из мировой практики переговоров по освобождению заложников, - это устранение эмоций из переговорного процессa.

MediaInfoAntologiya.Antiterrora.(01).2015.HDTV.720p.x264-lrn.mkv

GeneralUnique ID : 189952379039441945095133876507573906759 (0x8EE77F5AD8D67B98B2B7A87DC9726D47)Complete name : E:\uTorrent.Temp\Done\Antologiya.Antiterrora.2015.HDTV.720p.x264-lrn\Antologiya.Antiterrora.(01).2015.HDTV.720p.x264-lrn.mkvFormat : MatroskaFormat version : Version 4 / Version 2File size : 739 MiBDuration : 24mn 38sOverall bit rate : 4 195 KbpsMovie name : Antologiya.Antiterrora.(01).2015.HDTV.720p.x264-lrnEncoded date : UTC 2010-02-22 21:41:31Writing application : mkvmerge v5.9.0 ('On The Loose') built on Dec 9 2012 15:37:01Writing library : libebml v1.3.0 + libmatroska v1.4.0DURATION : 00:24:38.560000000NUMBER_OF_FRAMES : 36964NUMBER_OF_BYTES : 739524744_STATISTICS_WRITING_APP : mkvmerge v7.0.0 ('Where We Going') 32bit built on Jun 9 2014 15:08:34_STATISTICS_WRITING_DATE_UT : 2015-03-24 14:53:50_STATISTICS_TAGS : BPS DURATION NUMBER_OF_FRAMES NUMBER_OF_BYTES
VideoID : 1Format : AVCFormat/Info : Advanced Video CodecFormat profile : High@L4.1Format settings, CABAC : YesFormat settings, ReFrames : 8 framesCodec ID : V_MPEG4/ISO/AVCDuration : 24mn 38sBit rate : 4 000 KbpsWidth : 1 280 pixelsHeight : 720 pixelsDisplay aspect ratio : 16:9Frame rate mode : ConstantFrame rate : 25.000 fpsColor space : YUVChroma subsampling : 4:2:0Bit depth : 8 bitsScan type : ProgressiveBits/(Pixel*Frame) : 0.174Stream size : 691 MiB (93%)Writing library : x264 core 142 r2431 ac76440Encoding settings : cabac=1 / ref=8 / deblock=1:-3:-3 / analyse=0x3:0x133 / me=umh / subme=9 / psy=1 / psy_rd=1.00:0.00 / mixed_ref=1 / me_range=32 / chroma_me=1 / trellis=2 / 8x8dct=1 / cqm=0 / deadzone=21,11 / fast_pskip=1 / chroma_qp_offset=-2 / threads=12 / lookahead_threads=2 / sliced_threads=0 / nr=0 / decimate=1 / interlaced=0 / bluray_compat=0 / constrained_intra=0 / bframes=8 / b_pyramid=2 / b_adapt=2 / b_bias=0 / direct=3 / weightb=1 / open_gop=0 / weightp=2 / keyint=250 / keyint_min=25 / scenecut=40 / intra_refresh=0 / rc_lookahead=50 / rc=2pass / mbtree=1 / bitrate=4000 / ratetol=1.0 / qcomp=0.60 / qpmin=0 / qpmax=69 / qpstep=4 / cplxblur=20.0 / qblur=0.5 / vbv_maxrate=62500 / vbv_bufsize=78125 / nal_hrd=none / filler=0 / ip_ratio=1.40 / aq=1:1.00Default : YesForced : No
AudioID : 2Format : AC-3Format/Info : Audio Coding 3Mode extension : CM (complete main)Format settings, Endianness : BigCodec ID : A_AC3Duration : 24mn 38sBit rate mode : ConstantBit rate : 192 KbpsChannel(s) : 2 channelsChannel positions : Front: L RSampling rate : 48.0 KHzBit depth : 16 bitsCompression mode : LossyStream size : 33.8 MiB (5%)Language : RussianDefault : YesForced : No

Antologiya.Antiterrora.(02).2015.HDTV.720p.x264-lrn.mkv

GeneralUnique ID : 224355514405158892723976088090098434815 (0xA8C94CE2F5ACF512B578B5FEA2BA82FF)Complete name : E:\uTorrent.Temp\Done\Antologiya.Antiterrora.2015.HDTV.720p.x264-lrn\Antologiya.Antiterrora.(02).2015.HDTV.720p.x264-lrn.mkvFormat : MatroskaFormat version : Version 4 / Version 2File size : 770 MiBDuration : 25mn 39sOverall bit rate : 4 193 KbpsMovie name : Antologiya.Antiterrora.(02).2015.HDTV.720p.x264-lrnEncoded date : UTC 2010-02-22 21:41:31Writing application : mkvmerge v5.9.0 ('On The Loose') built on Dec 9 2012 15:37:01Writing library : libebml v1.3.0 + libmatroska v1.4.0DURATION : 00:25:39.480000000NUMBER_OF_FRAMES : 38487NUMBER_OF_BYTES : 769682338_STATISTICS_WRITING_APP : mkvmerge v7.0.0 ('Where We Going') 32bit built on Jun 9 2014 15:08:34_STATISTICS_WRITING_DATE_UT : 2015-03-24 16:05:27_STATISTICS_TAGS : BPS DURATION NUMBER_OF_FRAMES NUMBER_OF_BYTES
VideoID : 1Format : AVCFormat/Info : Advanced Video CodecFormat profile : High@L4.1Format settings, CABAC : YesFormat settings, ReFrames : 8 framesCodec ID : V_MPEG4/ISO/AVCDuration : 25mn 39sBit rate : 4 000 KbpsWidth : 1 280 pixelsHeight : 720 pixelsDisplay aspect ratio : 16:9Frame rate mode : ConstantFrame rate : 25.000 fpsColor space : YUVChroma subsampling : 4:2:0Bit depth : 8 bitsScan type : ProgressiveBits/(Pixel*Frame) : 0.174Stream size : 719 MiB (93%)Writing library : x264 core 142 r2431 ac76440Encoding settings : cabac=1 / ref=8 / deblock=1:-3:-3 / analyse=0x3:0x133 / me=umh / subme=9 / psy=1 / psy_rd=1.00:0.00 / mixed_ref=1 / me_range=32 / chroma_me=1 / trellis=2 / 8x8dct=1 / cqm=0 / deadzone=21,11 / fast_pskip=1 / chroma_qp_offset=-2 / threads=12 / lookahead_threads=2 / sliced_threads=0 / nr=0 / decimate=1 / interlaced=0 / bluray_compat=0 / constrained_intra=0 / bframes=8 / b_pyramid=2 / b_adapt=2 / b_bias=0 / direct=3 / weightb=1 / open_gop=0 / weightp=2 / keyint=250 / keyint_min=25 / scenecut=40 / intra_refresh=0 / rc_lookahead=50 / rc=2pass / mbtree=1 / bitrate=4000 / ratetol=1.0 / qcomp=0.60 / qpmin=0 / qpmax=69 / qpstep=4 / cplxblur=20.0 / qblur=0.5 / vbv_maxrate=62500 / vbv_bufsize=78125 / nal_hrd=none / filler=0 / ip_ratio=1.40 / aq=1:1.00Default : YesForced : No
AudioID : 2Format : AC-3Format/Info : Audio Coding 3Mode extension : CM (complete main)Format settings, Endianness : BigCodec ID : A_AC3Duration : 25mn 39sBit rate mode : ConstantBit rate : 192 KbpsChannel(s) : 2 channelsChannel positions : Front: L RSampling rate : 48.0 KHzBit depth : 16 bitsCompression mode : LossyStream size : 35.2 MiB (5%)Language : RussianDefault : YesForced : No

Antologiya.Antiterrora.(03).2015.HDTV.720p.x264-lrn.mkv

GeneralUnique ID : 173844063563675267465336894279642998787 (0x82C926159A2C6310BB5A8931B17F6803)Complete name : E:\uTorrent.Temp\Done\Antologiya.Antiterrora.2015.HDTV.720p.x264-lrn\Antologiya.Antiterrora.(03).2015.HDTV.720p.x264-lrn.mkvFormat : MatroskaFormat version : Version 4 / Version 2File size : 801 MiBDuration : 26mn 43sOverall bit rate : 4 192 KbpsMovie name : Antologiya.Antiterrora.(03).2015.HDTV.720p.x264-lrnEncoded date : UTC 2010-02-22 21:41:31Writing application : mkvmerge v5.9.0 ('On The Loose') built on Dec 9 2012 15:37:01Writing library : libebml v1.3.0 + libmatroska v1.4.0DURATION : 00:26:43.040000000NUMBER_OF_FRAMES : 40076NUMBER_OF_BYTES : 801159689_STATISTICS_WRITING_APP : mkvmerge v7.0.0 ('Where We Going') 32bit built on Jun 9 2014 15:08:34_STATISTICS_WRITING_DATE_UT : 2015-03-24 17:20:46_STATISTICS_TAGS : BPS DURATION NUMBER_OF_FRAMES NUMBER_OF_BYTES
VideoID : 1Format : AVCFormat/Info : Advanced Video CodecFormat profile : High@L4.1Format settings, CABAC : YesFormat settings, ReFrames : 8 framesCodec ID : V_MPEG4/ISO/AVCDuration : 26mn 43sBit rate : 4 000 KbpsWidth : 1 280 pixelsHeight : 720 pixelsDisplay aspect ratio : 16:9Frame rate mode : ConstantFrame rate : 25.000 fpsColor space : YUVChroma subsampling : 4:2:0Bit depth : 8 bitsScan type : ProgressiveBits/(Pixel*Frame) : 0.174Stream size : 748 MiB (93%)Writing library : x264 core 142 r2431 ac76440Encoding settings : cabac=1 / ref=8 / deblock=1:-3:-3 / analyse=0x3:0x133 / me=umh / subme=9 / psy=1 / psy_rd=1.00:0.00 / mixed_ref=1 / me_range=32 / chroma_me=1 / trellis=2 / 8x8dct=1 / cqm=0 / deadzone=21,11 / fast_pskip=1 / chroma_qp_offset=-2 / threads=12 / lookahead_threads=2 / sliced_threads=0 / nr=0 / decimate=1 / interlaced=0 / bluray_compat=0 / constrained_intra=0 / bframes=8 / b_pyramid=2 / b_adapt=2 / b_bias=0 / direct=3 / weightb=1 / open_gop=0 / weightp=2 / keyint=250 / keyint_min=25 / scenecut=40 / intra_refresh=0 / rc_lookahead=50 / rc=2pass / mbtree=1 / bitrate=4000 / ratetol=1.0 / qcomp=0.60 / qpmin=0 / qpmax=69 / qpstep=4 / cplxblur=20.0 / qblur=0.5 / vbv_maxrate=62500 / vbv_bufsize=78125 / nal_hrd=none / filler=0 / ip_ratio=1.40 / aq=1:1.00Default : YesForced : No
AudioID : 2Format : AC-3Format/Info : Audio Coding 3Mode extension : CM (complete main)Format settings, Endianness : BigCodec ID : A_AC3Duration : 26mn 43sBit rate mode : ConstantBit rate : 192 KbpsChannel(s) : 2 channelsChannel positions : Front: L RSampling rate : 48.0 KHzBit depth : 16 bitsCompression mode : LossyStream size : 36.7 MiB (5%)Language : RussianDefault : YesForced : No

Antologiya.Antiterrora.(04).2015.HDTV.720p.x264-lrn.mkv

GeneralUnique ID : 223020535022207672375767806024053094212 (0xA7C831523F75B436A4B62DBA3E92F744)Complete name : E:\uTorrent.Temp\Temp\Antologiya.Antiterrora.2015.HDTV.720p.x264-lrn\Antologiya.Antiterrora.(04).2015.HDTV.720p.x264-lrn.mkvFormat : MatroskaFormat version : Version 4 / Version 2File size : 860 MiBDuration : 28mn 39sOverall bit rate : 4 193 KbpsMovie name : Antologiya.Antiterrora.(04).2015.HDTV.720p.x264-lrnEncoded date : UTC 2010-02-22 21:41:31Writing application : mkvmerge v5.9.0 ('On The Loose') built on Dec 9 2012 15:37:01Writing library : libebml v1.3.0 + libmatroska v1.4.0DURATION : 00:28:39.600000000NUMBER_OF_FRAMES : 42990NUMBER_OF_BYTES : 859626243_STATISTICS_WRITING_APP : mkvmerge v7.0.0 ('Where We Going') 32bit built on Jun 9 2014 15:08:34_STATISTICS_WRITING_DATE_UT : 2015-03-25 09:55:14_STATISTICS_TAGS : BPS DURATION NUMBER_OF_FRAMES NUMBER_OF_BYTES
VideoID : 1Format : AVCFormat/Info : Advanced Video CodecFormat profile : High@L4.1Format settings, CABAC : YesFormat settings, ReFrames : 8 framesCodec ID : V_MPEG4/ISO/AVCDuration : 28mn 39sBit rate : 4 000 KbpsWidth : 1 280 pixelsHeight : 720 pixelsDisplay aspect ratio : 16:9Frame rate mode : ConstantFrame rate : 25.000 fpsColor space : YUVChroma subsampling : 4:2:0Bit depth : 8 bitsScan type : ProgressiveBits/(Pixel*Frame) : 0.174Stream size : 803 MiB (93%)Writing library : x264 core 142 r2431 ac76440Encoding settings : cabac=1 / ref=8 / deblock=1:-3:-3 / analyse=0x3:0x133 / me=umh / subme=9 / psy=1 / psy_rd=1.00:0.00 / mixed_ref=1 / me_range=32 / chroma_me=1 / trellis=2 / 8x8dct=1 / cqm=0 / deadzone=21,11 / fast_pskip=1 / chroma_qp_offset=-2 / threads=12 / lookahead_threads=2 / sliced_threads=0 / nr=0 / decimate=1 / interlaced=0 / bluray_compat=0 / constrained_intra=0 / bframes=8 / b_pyramid=2 / b_adapt=2 / b_bias=0 / direct=3 / weightb=1 / open_gop=0 / weightp=2 / keyint=250 / keyint_min=25 / scenecut=40 / intra_refresh=0 / rc_lookahead=50 / rc=2pass / mbtree=1 / bitrate=4000 / ratetol=1.0 / qcomp=0.60 / qpmin=0 / qpmax=69 / qpstep=4 / cplxblur=20.0 / qblur=0.5 / vbv_maxrate=62500 / vbv_bufsize=78125 / nal_hrd=none / filler=0 / ip_ratio=1.40 / aq=1:1.00Default : YesForced : No
AudioID : 2Format : AC-3Format/Info : Audio Coding 3Mode extension : CM (complete main)Format settings, Endianness : BigCodec ID : A_AC3Duration : 28mn 39sBit rate mode : ConstantBit rate : 192 KbpsChannel(s) : 2 channelsChannel positions : Front: L RSampling rate : 48.0 KHzBit depth : 16 bitsCompression mode : LossyStream size : 39.4 MiB (5%)Language : RussianDefault : YesForced : No

Antologiya.Antiterrora.(05).2015.HDTV.720p.x264-lrn.mkv

GeneralUnique ID : 234724437719216330357540291783143227896 (0xB0964846AAB25BBBB47C5B73BA0481F8)Complete name : E:\uTorrent.Temp\Temp\Antologiya.Antiterrora.2015.HDTV.720p.x264-lrn\Antologiya.Antiterrora.(05).2015.HDTV.720p.x264-lrn.mkvFormat : MatroskaFormat version : Version 4 / Version 2File size : 776 MiBDuration : 25mn 53sOverall bit rate : 4 193 KbpsMovie name : Antologiya.Antiterrora.(05).2015.HDTV.720p.x264-lrnEncoded date : UTC 2010-02-22 21:41:31Writing application : mkvmerge v5.9.0 ('On The Loose') built on Dec 9 2012 15:37:01Writing library : libebml v1.3.0 + libmatroska v1.4.0DURATION : 00:25:52.920000000NUMBER_OF_FRAMES : 38823NUMBER_OF_BYTES : 776314986_STATISTICS_WRITING_APP : mkvmerge v7.0.0 ('Where We Going') 32bit built on Jun 9 2014 15:08:34_STATISTICS_WRITING_DATE_UT : 2015-03-25 10:59:59_STATISTICS_TAGS : BPS DURATION NUMBER_OF_FRAMES NUMBER_OF_BYTES
VideoID : 1Format : AVCFormat/Info : Advanced Video CodecFormat profile : High@L4.1Format settings, CABAC : YesFormat settings, ReFrames : 8 framesCodec ID : V_MPEG4/ISO/AVCDuration : 25mn 53sBit rate : 4 000 KbpsWidth : 1 280 pixelsHeight : 720 pixelsDisplay aspect ratio : 16:9Frame rate mode : ConstantFrame rate : 25.000 fpsColor space : YUVChroma subsampling : 4:2:0Bit depth : 8 bitsScan type : ProgressiveBits/(Pixel*Frame) : 0.174Stream size : 725 MiB (93%)Writing library : x264 core 142 r2431 ac76440Encoding settings : cabac=1 / ref=8 / deblock=1:-3:-3 / analyse=0x3:0x133 / me=umh / subme=9 / psy=1 / psy_rd=1.00:0.00 / mixed_ref=1 / me_range=32 / chroma_me=1 / trellis=2 / 8x8dct=1 / cqm=0 / deadzone=21,11 / fast_pskip=1 / chroma_qp_offset=-2 / threads=12 / lookahead_threads=2 / sliced_threads=0 / nr=0 / decimate=1 / interlaced=0 / bluray_compat=0 / constrained_intra=0 / bframes=8 / b_pyramid=2 / b_adapt=2 / b_bias=0 / direct=3 / weightb=1 / open_gop=0 / weightp=2 / keyint=250 / keyint_min=25 / scenecut=40 / intra_refresh=0 / rc_lookahead=50 / rc=2pass / mbtree=1 / bitrate=4000 / ratetol=1.0 / qcomp=0.60 / qpmin=0 / qpmax=69 / qpstep=4 / cplxblur=20.0 / qblur=0.5 / vbv_maxrate=62500 / vbv_bufsize=78125 / nal_hrd=none / filler=0 / ip_ratio=1.40 / aq=1:1.00Default : YesForced : No
AudioID : 2Format : AC-3Format/Info : Audio Coding 3Mode extension : CM (complete main)Format settings, Endianness : BigCodec ID : A_AC3Duration : 25mn 53sBit rate mode : ConstantBit rate : 192 KbpsChannel(s) : 2 channelsChannel positions : Front: L RSampling rate : 48.0 KHzBit depth : 16 bitsCompression mode : LossyStream size : 35.5 MiB (5%)Language : RussianDefault : YesForced : No

Antologiya.Antiterrora.(06).2015.HDTV.720p.x264-lrn.mkv

GeneralUnique ID : 232746648823934753681024286411733336805 (0xAF195FC14126C490951608A63BE002E5)Complete name : E:\uTorrent.Temp\Temp\Antologiya.Antiterrora.2015.HDTV.720p.x264-lrn\Antologiya.Antiterrora.(06).2015.HDTV.720p.x264-lrn.mkvFormat : MatroskaFormat version : Version 4 / Version 2File size : 791 MiBDuration : 26mn 21sOverall bit rate : 4 193 KbpsMovie name : Antologiya.Antiterrora.(06).2015.HDTV.720p.x264-lrnEncoded date : UTC 2010-02-22 21:41:31Writing application : mkvmerge v5.9.0 ('On The Loose') built on Dec 9 2012 15:37:01Writing library : libebml v1.3.0 + libmatroska v1.4.0DURATION : 00:26:21.640000000NUMBER_OF_FRAMES : 39541NUMBER_OF_BYTES : 790627544_STATISTICS_WRITING_APP : mkvmerge v7.0.0 ('Where We Going') 32bit built on Jun 9 2014 15:08:34_STATISTICS_WRITING_DATE_UT : 2015-03-25 12:07:32_STATISTICS_TAGS : BPS DURATION NUMBER_OF_FRAMES NUMBER_OF_BYTES
VideoID : 1Format : AVCFormat/Info : Advanced Video CodecFormat profile : High@L4.1Format settings, CABAC : YesFormat settings, ReFrames : 8 framesCodec ID : V_MPEG4/ISO/AVCDuration : 26mn 21sBit rate : 4 000 KbpsWidth : 1 280 pixelsHeight : 720 pixelsDisplay aspect ratio : 16:9Frame rate mode : ConstantFrame rate : 25.000 fpsColor space : YUVChroma subsampling : 4:2:0Bit depth : 8 bitsScan type : ProgressiveBits/(Pixel*Frame) : 0.174Stream size : 739 MiB (93%)Writing library : x264 core 142 r2431 ac76440Encoding settings : cabac=1 / ref=8 / deblock=1:-3:-3 / analyse=0x3:0x133 / me=umh / subme=9 / psy=1 / psy_rd=1.00:0.00 / mixed_ref=1 / me_range=32 / chroma_me=1 / trellis=2 / 8x8dct=1 / cqm=0 / deadzone=21,11 / fast_pskip=1 / chroma_qp_offset=-2 / threads=12 / lookahead_threads=2 / sliced_threads=0 / nr=0 / decimate=1 / interlaced=0 / bluray_compat=0 / constrained_intra=0 / bframes=8 / b_pyramid=2 / b_adapt=2 / b_bias=0 / direct=3 / weightb=1 / open_gop=0 / weightp=2 / keyint=250 / keyint_min=25 / scenecut=40 / intra_refresh=0 / rc_lookahead=50 / rc=2pass / mbtree=1 / bitrate=4000 / ratetol=1.0 / qcomp=0.60 / qpmin=0 / qpmax=69 / qpstep=4 / cplxblur=20.0 / qblur=0.5 / vbv_maxrate=62500 / vbv_bufsize=78125 / nal_hrd=none / filler=0 / ip_ratio=1.40 / aq=1:1.00Default : YesForced : No
AudioID : 2Format : AC-3Format/Info : Audio Coding 3Mode extension : CM (complete main)Format settings, Endianness : BigCodec ID : A_AC3Duration : 26mn 21sBit rate mode : ConstantBit rate : 192 KbpsChannel(s) : 2 channelsChannel positions : Front: L RSampling rate : 48.0 KHzBit depth : 16 bitsCompression mode : LossyStream size : 36.2 MiB (5%)Language : RussianDefault : YesForced : No

Antologiya.Antiterrora.(07).2015.HDTV.720p.x264-lrn.mkv

GeneralUnique ID : 221121154866491006174658304009897295027 (0xA65A62A64390ED4AAD91560270DCBCB3)Complete name : E:\uTorrent.Temp\Temp\Antologiya.Antiterrora.2015.HDTV.720p.x264-lrn\Antologiya.Antiterrora.(07).2015.HDTV.720p.x264-lrn.mkvFormat : MatroskaFormat version : Version 4 / Version 2File size : 791 MiBDuration : 26mn 22sOverall bit rate : 4 193 KbpsMovie name : Antologiya.Antiterrora.(07).2015.HDTV.720p.x264-lrnEncoded date : UTC 2010-02-22 21:41:31Writing application : mkvmerge v5.9.0 ('On The Loose') built on Dec 9 2012 15:37:01Writing library : libebml v1.3.0 + libmatroska v1.4.0DURATION : 00:26:22.160000000NUMBER_OF_FRAMES : 39554NUMBER_OF_BYTES : 790888031_STATISTICS_WRITING_APP : mkvmerge v7.0.0 ('Where We Going') 32bit built on Jun 9 2014 15:08:34_STATISTICS_WRITING_DATE_UT : 2015-03-26 09:25:13_STATISTICS_TAGS : BPS DURATION NUMBER_OF_FRAMES NUMBER_OF_BYTES
VideoID : 1Format : AVCFormat/Info : Advanced Video CodecFormat profile : High@L4.1Format settings, CABAC : YesFormat settings, ReFrames : 8 framesCodec ID : V_MPEG4/ISO/AVCDuration : 26mn 22sBit rate : 4 000 KbpsWidth : 1 280 pixelsHeight : 720 pixelsDisplay aspect ratio : 16:9Frame rate mode : ConstantFrame rate : 25.000 fpsColor space : YUVChroma subsampling : 4:2:0Bit depth : 8 bitsScan type : ProgressiveBits/(Pixel*Frame) : 0.174Stream size : 739 MiB (93%)Writing library : x264 core 142 r2431 ac76440Encoding settings : cabac=1 / ref=8 / deblock=1:-3:-3 / analyse=0x3:0x133 / me=umh / subme=9 / psy=1 / psy_rd=1.00:0.00 / mixed_ref=1 / me_range=32 / chroma_me=1 / trellis=2 / 8x8dct=1 / cqm=0 / deadzone=21,11 / fast_pskip=1 / chroma_qp_offset=-2 / threads=12 / lookahead_threads=2 / sliced_threads=0 / nr=0 / decimate=1 / interlaced=0 / bluray_compat=0 / constrained_intra=0 / bframes=8 / b_pyramid=2 / b_adapt=2 / b_bias=0 / direct=3 / weightb=1 / open_gop=0 / weightp=2 / keyint=250 / keyint_min=25 / scenecut=40 / intra_refresh=0 / rc_lookahead=50 / rc=2pass / mbtree=1 / bitrate=4000 / ratetol=1.0 / qcomp=0.60 / qpmin=0 / qpmax=69 / qpstep=4 / cplxblur=20.0 / qblur=0.5 / vbv_maxrate=62500 / vbv_bufsize=78125 / nal_hrd=none / filler=0 / ip_ratio=1.40 / aq=1:1.00Default : YesForced : No
AudioID : 2Format : AC-3Format/Info : Audio Coding 3Mode extension : CM (complete main)Format settings, Endianness : BigCodec ID : A_AC3Duration : 26mn 22sBit rate mode : ConstantBit rate : 192 KbpsChannel(s) : 2 channelsChannel positions : Front: L RSampling rate : 48.0 KHzBit depth : 16 bitsCompression mode : LossyStream size : 36.2 MiB (5%)Language : RussianDefault : YesForced : No

Antologiya.Antiterrora.(08).2015.HDTV.720p.x264-lrn.mkv

GeneralUnique ID : 245462982668283493147344795684701612820 (0xB8AA736B4B93F4969CBAD59BE6462B14)Complete name : E:\uTorrent.Temp\Temp\Antologiya.Antiterrora.2015.HDTV.720p.x264-lrn\Antologiya.Antiterrora.(08).2015.HDTV.720p.x264-lrn.mkvFormat : MatroskaFormat version : Version 4 / Version 2File size : 819 MiBDuration : 27mn 18sOverall bit rate : 4 194 KbpsMovie name : Antologiya.Antiterrora.(08).2015.HDTV.720p.x264-lrnEncoded date : UTC 2010-02-22 21:41:31Writing application : mkvmerge v5.9.0 ('On The Loose') built on Dec 9 2012 15:37:01Writing library : libebml v1.3.0 + libmatroska v1.4.0DURATION : 00:27:18.680000000NUMBER_OF_FRAMES : 40967NUMBER_OF_BYTES : 819336169_STATISTICS_WRITING_APP : mkvmerge v7.0.0 ('Where We Going') 32bit built on Jun 9 2014 15:08:34_STATISTICS_WRITING_DATE_UT : 2015-03-26 10:31:45_STATISTICS_TAGS : BPS DURATION NUMBER_OF_FRAMES NUMBER_OF_BYTES
VideoID : 1Format : AVCFormat/Info : Advanced Video CodecFormat profile : High@L4.1Format settings, CABAC : YesFormat settings, ReFrames : 8 framesCodec ID : V_MPEG4/ISO/AVCDuration : 27mn 18sBit rate : 4 000 KbpsWidth : 1 280 pixelsHeight : 720 pixelsDisplay aspect ratio : 16:9Frame rate mode : ConstantFrame rate : 25.000 fpsColor space : YUVChroma subsampling : 4:2:0Bit depth : 8 bitsScan type : ProgressiveBits/(Pixel*Frame) : 0.174Stream size : 765 MiB (93%)Writing library : x264 core 142 r2431 ac76440Encoding settings : cabac=1 / ref=8 / deblock=1:-3:-3 / analyse=0x3:0x133 / me=umh / subme=9 / psy=1 / psy_rd=1.00:0.00 / mixed_ref=1 / me_range=32 / chroma_me=1 / trellis=2 / 8x8dct=1 / cqm=0 / deadzone=21,11 / fast_pskip=1 / chroma_qp_offset=-2 / threads=12 / lookahead_threads=2 / sliced_threads=0 / nr=0 / decimate=1 / interlaced=0 / bluray_compat=0 / constrained_intra=0 / bframes=8 / b_pyramid=2 / b_adapt=2 / b_bias=0 / direct=3 / weightb=1 / open_gop=0 / weightp=2 / keyint=250 / keyint_min=25 / scenecut=40 / intra_refresh=0 / rc_lookahead=50 / rc=2pass / mbtree=1 / bitrate=4000 / ratetol=1.0 / qcomp=0.60 / qpmin=0 / qpmax=69 / qpstep=4 / cplxblur=20.0 / qblur=0.5 / vbv_maxrate=62500 / vbv_bufsize=78125 / nal_hrd=none / filler=0 / ip_ratio=1.40 / aq=1:1.00Default : YesForced : No
AudioID : 2Format : AC-3Format/Info : Audio Coding 3Mode extension : CM (complete main)Format settings, Endianness : BigCodec ID : A_AC3Duration : 27mn 18sBit rate mode : ConstantBit rate : 192 KbpsChannel(s) : 2 channelsChannel positions : Front: L RSampling rate : 48.0 KHzBit depth : 16 bitsCompression mode : LossyStream size : 37.5 MiB (5%)Language : RussianDefault : YesForced : No

Antologiya.Antiterrora.(09).2015.HDTV.720p.x264-lrn.mkv

GeneralUnique ID : 237950622513880937076670026120820270233 (0xB3039F7796564AA1A98542C05B09A499)Complete name : E:\uTorrent.Temp\Temp\Antologiya.Antiterrora.2015.HDTV.720p.x264-lrn\Antologiya.Antiterrora.(09).2015.HDTV.720p.x264-lrn.mkvFormat : MatroskaFormat version : Version 4 / Version 2File size : 793 MiBDuration : 26mn 25sOverall bit rate : 4 195 KbpsMovie name : Antologiya.Antiterrora.(09).2015.HDTV.720p.x264-lrnEncoded date : UTC 2010-02-22 21:41:31Writing application : mkvmerge v5.9.0 ('On The Loose') built on Dec 9 2012 15:37:01Writing library : libebml v1.3.0 + libmatroska v1.4.0DURATION : 00:26:25.120000000NUMBER_OF_FRAMES : 39628NUMBER_OF_BYTES : 792693593_STATISTICS_WRITING_APP : mkvmerge v7.0.0 ('Where We Going') 32bit built on Jun 9 2014 15:08:34_STATISTICS_WRITING_DATE_UT : 2015-03-26 11:36:21_STATISTICS_TAGS : BPS DURATION NUMBER_OF_FRAMES NUMBER_OF_BYTES
VideoID : 1Format : AVCFormat/Info : Advanced Video CodecFormat profile : High@L4.1Format settings, CABAC : YesFormat settings, ReFrames : 8 framesCodec ID : V_MPEG4/ISO/AVCDuration : 26mn 25sBit rate : 4 000 KbpsWidth : 1 280 pixelsHeight : 720 pixelsDisplay aspect ratio : 16:9Frame rate mode : ConstantFrame rate : 25.000 fpsColor space : YUVChroma subsampling : 4:2:0Bit depth : 8 bitsScan type : ProgressiveBits/(Pixel*Frame) : 0.174Stream size : 741 MiB (93%)Writing library : x264 core 142 r2431 ac76440Encoding settings : cabac=1 / ref=8 / deblock=1:-3:-3 / analyse=0x3:0x133 / me=umh / subme=9 / psy=1 / psy_rd=1.00:0.00 / mixed_ref=1 / me_range=32 / chroma_me=1 / trellis=2 / 8x8dct=1 / cqm=0 / deadzone=21,11 / fast_pskip=1 / chroma_qp_offset=-2 / threads=12 / lookahead_threads=2 / sliced_threads=0 / nr=0 / decimate=1 / interlaced=0 / bluray_compat=0 / constrained_intra=0 / bframes=8 / b_pyramid=2 / b_adapt=2 / b_bias=0 / direct=3 / weightb=1 / open_gop=0 / weightp=2 / keyint=250 / keyint_min=25 / scenecut=40 / intra_refresh=0 / rc_lookahead=50 / rc=2pass / mbtree=1 / bitrate=4000 / ratetol=1.0 / qcomp=0.60 / qpmin=0 / qpmax=69 / qpstep=4 / cplxblur=20.0 / qblur=0.5 / vbv_maxrate=62500 / vbv_bufsize=78125 / nal_hrd=none / filler=0 / ip_ratio=1.40 / aq=1:1.00Default : YesForced : No
AudioID : 2Format : AC-3Format/Info : Audio Coding 3Mode extension : CM (complete main)Format settings, Endianness : BigCodec ID : A_AC3Duration : 26mn 25sBit rate mode : ConstantBit rate : 192 KbpsChannel(s) : 2 channelsChannel positions : Front: L RSampling rate : 48.0 KHzBit depth : 16 bitsCompression mode : LossyStream size : 36.3 MiB (5%)Language : RussianDefault : YesForced : No

Скриншоты

-
[Профиль] [ЛС]
Показать сообщения:    

Текущее время: Сегодня 20:43

Часовой пояс: GMT



Вы не можете начинать темы
Вы не можете отвечать на сообщения
Вы не можете редактировать свои сообщения
Вы не можете удалять свои сообщения
Вы не можете голосовать в опросах
Вы не можете прикреплять файлы к сообщениям
Вы не можете скачивать файлы