Античная лирика (Мария Муат) [1989, мультфильм, философский, DVB]

 
Автор Сообщение

TorrentFilm ®

Пол:

Стаж: 2 года

Сообщений: 7741



Награды: Нет

Торрент-статистика

Создавать темы 01-Янв-2016 00:22

[Цитировать]

Античная лирика
Жанр: мультфильм, философский
Год выпуска: 1989
Продолжительность: 00:17:53
Режиссёр: Мария Муат
Описание: мульфильм для взрослых - по мотивам древнегреческой мифологии. Сюжет основу фильма составляет трогательная и драматическая история любви юноши Экзигена к девушке Лисидике ...
Доп. информация: огромная благодарность за предоставленный исходник

Релиз группы:
Трансляция спутникового канала:

Качество видео: DVB
Формат видео: MPEG-PS
Видео: MPEG2 Video, 544x576@768x576 (4:3), анаморф, 25 fps, 3200 kbps
Аудио: MPEG Audio, 2 сh, 48 kHz, 192 kbps

MediaInfo

D:\Античная лирика. (1989)_DVB by RG multfilms.mpg
General
Complete name : D:\Античная лирика. (1989)_DVB by RG multfilms.mpg
Format : MPEG-PS
File size : 448 MiB
Duration : 17mn 53s
Overall bit rate mode : Variable
Overall bit rate : 3 500 Kbps
Writing library : (c) 1998-2010 Womble Multimedia, Inc. / MPEG Video Wizard DVD 5.0.0.114 (01/2010) / Apr 20 2010
Video #224
ID : 224 (0xE0)
Format : MPEG Video
Format version : Version 2
Format profile : Main@Main
Format settings, BVOP : Yes
Format settings, Matrix : Custom
Format settings, GOP : M=3, N=21
Duration : 17mn 53s
Bit rate mode : Variable
Bit rate : 3 239 Kbps
Maximum bit rate : 15.0 Mbps
Width : 544 pixels
Height : 576 pixels
Display aspect ratio : 4:3
Frame rate : 25.000 fps
Color space : YUV
Chroma subsampling : 4:2:0
Bit depth : 8 bits
Scan type : Interlaced
Scan order : Top Field First
Compression mode : Lossy
Bits/(Pixel*Frame) : 0.413
Stream size : 414 MiB (93%)
Writing library : (c) 1998-2010 Womble Multimedia, Inc. / MPEG Video Wizard DVD 5.0.0.114 (01/2010) / Apr 20 2010
Audio #192
ID : 192 (0xC0)
Format : MPEG Audio
Format version : Version 1
Format profile : Layer 2
Duration : 17mn 53s
Bit rate mode : Constant
Bit rate : 192 Kbps
Channel(s) : 2 channels
Sampling rate : 48.0 KHz
Compression mode : Lossy
Delay relative to video : -80ms
Stream size : 24.6 MiB (5%)
Menu

Скриншоты


[Профиль] [ЛС]
Кто просматривает тему:

Форум Тема Автор Размер
Cборники 70х-80х-90х (Ретро) (Pop ,Rock) VA - 70 композиций для Романтической Встречи - 2013, MP3, 320 kbps Magnat 684 MB
Cборники 70х-80х-90х (Ретро) (POP) VA - Романтическая музыка 70-80-х - 2013, MP3, 128 kbps Magnat 623 MB
Viasat History Viasat History: Секреты устройства античных городов / Building the Ancient City [серии 1-2 из 2] (Paul Elston) [2015 г., Документальный, научно-познавательный, история, HDTVRip 720p] skorpionN 3.04 GB
Фильмы 2015 года Будь мужчиной / Будь мужиком / Man Up (Бен Палмер / Ben Palmer) [2015, Великобритания, Франция, романтическая мелодрама, комедия, HDRip] Sub Rus + Original Eng TorrentFilm 1.41 GB
Фильмы 2014 года Вишнёвый табак / Kirsitubakas (Андрес Маймик / Andres Maimik, Катрин Маймик / Katrin Maimik) [2014, Эстония, Романтическая мелодрама, DVDRip] VO (PashaUp) + Original Est TorrentFilm 1.45 GB
Фильмы 2014 года Вишнёвый табак / Kirsitubakas (Андрес Маймик, Катрин Маймик / Katrin Maimik, Andres Maimik) [2014, Эстония, Романтическая мелодрама, DVDRip] Sub Rus + Original Est TorrentFilm 1.3 GB
Фильмы (DVD 5/9) Вот это любовь! (Станислав Назиров) [2013, Беларусь, Россия, романтическая комедия, DVD5 (Сжатый)] TorrentFilm 4.13 GB
Фильмы (DVD 5/9) Вот это любовь! (Станислав Назиров) [2013, Беларусь, Россия, романтическая комедия, DVD9] TorrentFilm 5.59 GB
Показать сообщения:    

Текущее время: Сегодня 20:32

Часовой пояс: GMT



Вы не можете начинать темы
Вы не можете отвечать на сообщения
Вы не можете редактировать свои сообщения
Вы не можете удалять свои сообщения
Вы не можете голосовать в опросах
Вы не можете прикреплять файлы к сообщениям
Вы не можете скачивать файлы