Антибумер (2004) BDRip 720p | Смешной перевод

 
Автор Сообщение

BOSS ®

Пол:

Стаж: 2 года 2 месяца

Сообщений: 3751

Откуда: ODESSA



Награды: 20 (Подробнее)

Top Releaser 4 (Количество: 1) Mega Releaser 2 (Количество: 1) Mega Seeder 1 (Количество: 1)
Торрент-статистика

Создавать темы 30-Апр-2016 14:02

[Цитировать]

Информация о фильме
Название: Антибумер
Год выхода: 2004
Жанр: Пародия, комедия, юмористический перевод
Режиссер: Петр Буслов, Дмитрий "Goblin" Пучков
В ролях: Владимир Вдовиченков, Андрей Мерзликин, Максим Коновалов, Сергей Горобченко, Людмила Полякова, Яна Шивкова, Анастасия Сапожникова, Владислав Абашин, Виталий Альшанский, Василий Седых, Евгений Крайнов, Алексей Зайцев, Олег Семисотов, Михаил Лукашо, Филипп Рыба, Алексей Ошурков, Анатолий Кощеев
О фильме:
По бескрайним просторам России мчится жертва отечественного автосервиса — черный бумер с движком от Запорожца. Четверо друзей, яростные фанаты футбола, мечтают попасть в Португалию — на Евро-2004. И даже цепь роковых встреч с угрюмыми оборотнями в погонах, озверевшими любителями филармонии и оборзевшими звездами провинциального шоу-бизнеса не может им помешать. Полный вперед, глобус Португалии верно укажет путь! И не важно, какую дорогу выбирать. Земля-то круглая.
Страна: Россия
Продолжительность: 01:12:56
Перевод: профессиональный одноголосый (смешной перевод Гоблина)
Файл
Качество: BDRip 720p
Формат: MP4
Видео: MPEG-4 AVC, 1280x720, 6938 Kbps, 25 fps
Аудио: 48 kHz, AAC, 2 ch, ~160 kbps
Семпл
Примечание автора раздачи:
Релиз от Альянса Вольных Переводчиков.
Пересобрано в HD-качестве. Ремастеринг - Андрей Кравец.
Официальный сайт

MI

D:3arpy3ku3arpy}+{eHoAntibumer.2004.BDRip.720p.mp4
General
Complete name : D:3arpy3ku3arpy}+{eHoAntibumer.2004.BDRip.720p.mp4
Format : MPEG-4
Codec ID : M4V
File size : 3.62 GiB
Duration : 1h 12mn
Overall bit rate : 7 100 Kbps
Movie name : 1080
Movie name/More :
Performer :
Encoded date : UTC 2016-01-14 14:23:15
Tagged date : UTC 2016-01-14 14:30:55
desc :
Video #2
Format : AVC
Format/Info : Advanced Video Codec
Format profile : High@L3.1
Format settings, CABAC : Yes
Format settings, ReFrames : 2 frames
Codec ID : avc1
Codec ID/Info : Advanced Video Coding
Duration : 1h 12mn
Bit rate mode : Variable
Bit rate : 6 938 Kbps
Width : 1 280 pixels
Height : 720 pixels
Display aspect ratio : 16/9
Frame rate mode : Constant
Frame rate : 25.000 fps
Resolution : 24 bits
Colorimetry : 4:2:0
Scan type : Progressive
Bits/(Pixel*Frame) : 0.301
Stream size : 3.53 GiB (98%)
Title : Core Media Video
Encoded date : UTC 2016-01-14 14:23:15
Tagged date : UTC 2016-01-14 14:30:55
Audio #1
Format : AAC
Format/Info : Advanced Audio Codec
Format version : Version 4
Format profile : LC
Format settings, SBR : No
Codec ID : 40
Duration : 1h 12mn
Bit rate mode : Constant
Bit rate : 158 Kbps
Nominal bit rate : 160 Kbps
Channel(s) : 2 channels
Channel positions : L R
Sampling rate : 48.0 KHz
Resolution : 16 bits
Stream size : 82.3 MiB (2%)
Title : Core Media Audio
Language : Russian
Encoded date : UTC 2016-01-14 14:23:15
Tagged date : UTC 2016-01-14 14:30:55
Релиз от:
[Профиль] [ЛС]
Кто просматривает тему:

Показать сообщения:    

Текущее время: Сегодня 00:28

Часовой пояс: GMT



Вы не можете начинать темы
Вы не можете отвечать на сообщения
Вы не можете редактировать свои сообщения
Вы не можете удалять свои сообщения
Вы не можете голосовать в опросах
Вы не можете прикреплять файлы к сообщениям
Вы не можете скачивать файлы