Антарктическое лето (Владимир Соловьев) [2012, Документальный, HDTV 1080i]

 
Автор Сообщение

TorrentFilm ®

Пол:

Стаж: 2 года 6 месяцев

Сообщений: 7773



Награды: Нет

Торрент-статистика

Создавать темы 01-Мар-2015 00:01

[Цитировать]

Антарктическое лето
Год выпуска: 2012
Страна: Россия
Жанр: Документальный
Продолжительность: 00:37:00
Перевод: Не требуется
Режиссер: Владимир Соловьев
Описание: Антарктида — самый холодный, самый загадочный и самый высокий континент Земли. В антарктических ледниках – 80 % всех пресных вод нашей планеты. Здесь была зафиксирована самая низкая на Земле температура – минус 89,2 по Цельсию.
Но при этом без солнечных очков в этих местах не обойтись. Кроме полюса холода, в Антарктиде находятся точки самой низкой относительной влажности воздуха, самого сильного и продолжительного ветра и самой интенсивной солнечной радиации.
И, ко всему прочему, это самый "умный" континент! Население Антарктиды хоть и не постоянное, но состоит из учёных и исследователей. Как они выживают в этих нечеловеческих условиях и почему возвращаются вновь? Все ответы – в фильме Владимира Соловьева.
Тип релиза: HDTV 1080i
Контейнер: TS
Видео: H264; 1920x1080 (16:9); 25.000 fps; ~7 808 Kbps
Аудио: MPEG Audio 48000Hz stereo 192 Кбит/сек

MediaInfo

GeneralID : 0 (0x0)Complete name : L:\1_DOKUMENT\Антарктическое лето_by kuzmichm2196 _fixed.tsFormat : MPEG-TSFile size : 2.55 GiBDuration : 36mn 37sOverall bit rate mode : VariableOverall bit rate : 9 971 Kbps
VideoID : 4113 (0x1011)Menu ID : 1 (0x1)Format : AVCFormat/Info : Advanced Video CodecFormat profile : High@L4.0Format settings, CABAC : NoFormat settings, ReFrames : 2 framesCodec ID : 27Duration : 36mn 37sBit rate mode : VariableBit rate : 9 285 KbpsMaximum bit rate : 19.6 MbpsWidth : 1 920 pixelsHeight : 1 080 pixelsDisplay aspect ratio : 16:9Frame rate : 25.000 fpsStandard : PALColor space : YUVChroma subsampling : 4:2:0Bit depth : 8 bitsScan type : MBAFFBits/(Pixel*Frame) : 0.179Stream size : 2.38 GiB (93%)Color primaries : BT.709Transfer characteristics : BT.709Matrix coefficients : BT.709
AudioID : 4352 (0x1100)Menu ID : 1 (0x1)Format : AC-3Format/Info : Audio Coding 3Mode extension : CM (complete main)Format settings, Endianness : BigCodec ID : 129Duration : 36mn 37sBit rate mode : ConstantBit rate : 192 KbpsChannel(s) : 2 channelsChannel positions : Front: L RSampling rate : 48.0 KHzBit depth : 16 bitsCompression mode : LossyStream size : 50.3 MiB (2%)

Скриншоты

[Профиль] [ЛС]
Показать сообщения:    

Текущее время: Сегодня 19:31

Часовой пояс: GMT



Вы не можете начинать темы
Вы не можете отвечать на сообщения
Вы не можете редактировать свои сообщения
Вы не можете удалять свои сообщения
Вы не можете голосовать в опросах
Вы не можете прикреплять файлы к сообщениям
Вы не можете скачивать файлы