Антарктическое Лето (Владимир Соловьев) [2012, Документальный, HDTV 720p]

 
Автор Сообщение

TorrentFilm ®

Пол:

Стаж: 2 года

Сообщений: 7741



Награды: Нет

Торрент-статистика

Создавать темы 26-Фев-2015 00:01

[Цитировать]

Антарктическое Лето- Год выпуска: 2012
Страна: Россия
Канал: Россия HD
Жанр: Документальный
Продолжительность: 0:36:37
Режиссер: Владимир Соловьев-Описание: Антарктида — самый холодный, самый загадочный и самый высокий континент Земли. В антарктических ледниках – 80 % всех пресных вод нашей планеты. Здесь была зафиксирована самая низкая на Земле температура – минус 89,2 по Цельсию.
Но при этом без солнечных очков в этих местах не обойтись. Кроме полюса холода, в Антарктиде находятся точки самой низкой относительной влажности воздуха, самого сильного и продолжительного ветра и самой интенсивной солнечной радиации.-Автор рипа: lrn
Автор записи: kuzmichm2196
Сэмпл: Яндекс.Диск-Тип релиза: HDTV 720p
Контейнер: MKV
Видео: 1280x720 (16:9), 25,000 fps, H264, ~4000 kbps avg, ~0.174 bit/pixel
Аудио: 48 kHz, AC3 Dolby Digital, 2/0 (L,R) ch, ~192.00 kbps avg-

MediaInfo

GeneralUnique ID : 241421359880478565658176980038234849203 (0xB5A01007EB87333A9B276FF2AB7ABFB3)Complete name : E:\uTorrent.Temp\Done\Antarkticheskoe.Leto.2012.HDTV.720p.x264-lrn.mkvFormat : MatroskaFormat version : Version 4 / Version 2File size : 1.07 GiBDuration : 36mn 37sOverall bit rate : 4 192 KbpsMovie name : 'Antarkticheskoe.Leto.2012.HDTV.720p.x264' by lrn © 2015Encoded date : UTC 2010-02-22 21:41:31Writing application : mkvmerge v5.9.0 ('On The Loose') built on Dec 9 2012 15:37:01Writing library : libebml v1.3.0 + libmatroska v1.4.0DURATION : 00:36:37.640000000NUMBER_OF_FRAMES : 54941NUMBER_OF_BYTES : 1098289052_STATISTICS_WRITING_APP : mkvmerge v7.0.0 ('Where We Going') 32bit built on Jun 9 2014 15:08:34_STATISTICS_WRITING_DATE_UT : 2015-02-25 16:53:44_STATISTICS_TAGS : BPS DURATION NUMBER_OF_FRAMES NUMBER_OF_BYTES
VideoID : 1Format : AVCFormat/Info : Advanced Video CodecFormat profile : High@L4.1Format settings, CABAC : YesFormat settings, ReFrames : 6 framesCodec ID : V_MPEG4/ISO/AVCDuration : 36mn 37sBit rate : 4 000 KbpsWidth : 1 280 pixelsHeight : 720 pixelsDisplay aspect ratio : 16:9Frame rate mode : ConstantFrame rate : 25.000 fpsColor space : YUVChroma subsampling : 4:2:0Bit depth : 8 bitsScan type : ProgressiveBits/(Pixel*Frame) : 0.174Stream size : 1.00 GiB (93%)Writing library : x264 core 142 r2431 ac76440Encoding settings : cabac=1 / ref=6 / deblock=1:0:0 / analyse=0x3:0x133 / me=umh / subme=9 / psy=1 / psy_rd=1.00:0.00 / mixed_ref=1 / me_range=24 / chroma_me=1 / trellis=2 / 8x8dct=1 / cqm=0 / deadzone=21,11 / fast_pskip=1 / chroma_qp_offset=-2 / threads=12 / lookahead_threads=1 / sliced_threads=0 / nr=0 / decimate=1 / interlaced=0 / bluray_compat=0 / constrained_intra=0 / bframes=6 / b_pyramid=2 / b_adapt=2 / b_bias=0 / direct=3 / weightb=1 / open_gop=0 / weightp=2 / keyint=250 / keyint_min=25 / scenecut=40 / intra_refresh=0 / rc_lookahead=50 / rc=2pass / mbtree=1 / bitrate=4000 / ratetol=1.0 / qcomp=0.60 / qpmin=0 / qpmax=69 / qpstep=4 / cplxblur=20.0 / qblur=0.5 / ip_ratio=1.40 / aq=1:1.00Default : YesForced : No
AudioID : 2Format : AC-3Format/Info : Audio Coding 3Mode extension : CM (complete main)Format settings, Endianness : BigCodec ID : A_AC3Duration : 36mn 37sBit rate mode : ConstantBit rate : 192 KbpsChannel(s) : 2 channelsChannel positions : Front: L RSampling rate : 48.0 KHzBit depth : 16 bitsCompression mode : LossyStream size : 50.3 MiB (5%)Language : RussianDefault : YesForced : No

Скриншоты

-
[Профиль] [ЛС]
Кто просматривает тему:

Форум Тема Автор Размер
Nat Geo Wild Nat Geo Wild: Дикая Антарктика / Wild Antarctica (Jessica Connell) [2015 г., Документальный, научно-познавательный, HDTVRip-AVC 720p] skorpionN 1.59 GB
National Geographic NG: Седьмой континент: Антарктида / Continent 7: Antarctica [сезон 1 серии 1-3 из 6] (Todd Hermann) [2016 г., Документальный, научно-популярный, ислледования, HDTVRip 720p] skorpionN 5.05 GB
Боевики, детективы, триллеры Александр Бушков - Шантарский цикл [9 книг] (2010-2013) MP3 Swager 3.72 GB
Документальные HD Антарктическое лето (Владимир Соловьев) [2012, Документальный, HDTV 1080i] TorrentFilm 2.55 GB
Путешествия и приключения Владимир Санин - Новичок в Антарктиде (Полярные были) (2016) MP3 Swager 824 MB
Боевики, детективы, триллеры Грегори Дэвид Робертс - Шантарам. Тень горы (2016) MP3 Swager 839 MB
Документальные HD Русская Антарктида. XXI век - HDTV (Ольга Стефанова) [2015, Документальный, HDTV 1080i] TorrentFilm 5.03 GB
Документальные HD Русская Антарктида: XXI Век (Ольга Стефанова) [28.01.2015, Документальный, HDTV 720p] TorrentFilm 2.53 GB
Показать сообщения:    

Текущее время: Сегодня 23:30

Часовой пояс: GMT



Вы не можете начинать темы
Вы не можете отвечать на сообщения
Вы не можете редактировать свои сообщения
Вы не можете удалять свои сообщения
Вы не можете голосовать в опросах
Вы не можете прикреплять файлы к сообщениям
Вы не можете скачивать файлы