Аноним / Anonymous (2011) BDRip 1080p

 
Автор Сообщение

BOSS ®

Пол:

Стаж: 2 года 10 месяцев

Сообщений: 6759

Откуда: ODESSA



Награды: 20 (Подробнее)

Top Keeper 3 (Количество: 1) Top Releaser 3 (Количество: 1) Top Keeper 4 (Количество: 1)
Торрент-статистика

Создавать темы 29-Июл-2017 07:28

[Цитировать]

Информация о фильме
Название: Аноним
Оригинальное название: Anonymous
Год выхода: 2011
Жанр: триллер, драма
Режиссер: Роланд Эммерих
В ролях: Рис Иванс, Ванесса Редгрейв, Себастьян Фернандес-Арместо, Рейф Сполл, Дэвид Тьюлис, Эдвард Хогг, Ксавьер Сэмюэл, Сэм Рейд, Джейми Кэмпбелл Бауэр, Джоэли Ричардсон
О фильме: Фильм даст совершенно неожиданный ответ на извечный вопрос: а кем же «был или не был» Шекспир, и кто на самом деле скрывается за этим всемирно известным именем великого человека?

Выпущено: Columbia Pictures
Продолжительность: 02:09:58
Перевод: Дублированный
Файл
Кодек: x264
Качество: BDRip (источник: Blu-ray Disc)
Видео: 1920x816 (2,35:1), 23.976 fps, 3922 kbps
Аудио #1: AC-3, 6 ch, 448 kbps (Rus)
Аудио #2: AC-3, 6 ch, 448 kbps (Eng)
Субтитры: Русские (форс), Английские
Скачать: сэмпл
Скриншоты

MI

Общее
Уникальный идентификатор : 222568598780420925676046357517129906028 (0xA7712724EC51A12D8C08A6F67D62776C)
Полное имя : Anonymous.2011.BDRip.1080p.Rus.Eng.mkv
Формат : Matroska
Версия формата : Version 2
Размер файла : 4,37 Гбайт
Продолжительность : 2 ч. 9 м.
Общий поток : 4819 Кбит/сек
Название фильма : Аноним / Anonymous (2011)
Дата кодирования : UTC 2012-01-25 15:11:07
Программа кодирования : mkvmerge v4.0.0 ('The Stars were mine') сборка от Jun 6 2010 16:18:42
Библиотека кодирования : libebml v1.0.0 + libmatroska v1.0.0
Видео
Идентификатор : 1
Формат : AVC
Формат/Информация : Advanced Video Codec
Профиль формата : High@L4.1
Параметр CABAC формата : Да
Параметр ReFrames формата : 5 кадров
Идентификатор кодека : V_MPEG4/ISO/AVC
Продолжительность : 2 ч. 9 м.
Битрейт : 3922 Кбит/сек
Ширина : 1920 пикселей
Высота : 816 пикселей
Соотношение сторон : 2,35:1
Частота кадров : 23,976 кадра/сек
Цветовое пространство : YUV
Субдискретизация насыщенности : 4:2:0
Битовая глубина : 8 бит
Тип развёртки : Прогрессивная
Бит/(Пиксели*Кадры) : 0.104
Размер потока : 3,47 Гбайт (79%)
Заголовок : Release by AlexKa
Библиотека кодирования : x264 core 120 r2146 bcd41db
Настройки программы : cabac=1 / ref=5 / deblock=1:0:0 / analyse=0x3:0x133 / me=umh / subme=10 / psy=1 / psy_rd=1.00:0.10 / mixed_ref=1 / me_range=32 / chroma_me=1 / trellis=2 / 8x8dct=1 / cqm=0 / deadzone=21,11 / fast_pskip=0 / chroma_qp_offset=-3 / threads=12 / sliced_threads=0 / nr=0 / decimate=0 / interlaced=0 / bluray_compat=0 / constrained_intra=0 / bframes=5 / b_pyramid=2 / b_adapt=2 / b_bias=0 / direct=3 / weightb=1 / open_gop=0 / weightp=2 / keyint=240 / keyint_min=24 / scenecut=40 / intra_refresh=0 / rc_lookahead=60 / rc=2pass / mbtree=1 / bitrate=3922 / ratetol=1.0 / qcomp=0.60 / qpmin=0 / qpmax=69 / qpstep=4 / cplxblur=20.0 / qblur=0.5 / ip_ratio=1.40 / aq=1:1.00
Язык : English
Аудио #1
Идентификатор : 2
Формат : AC-3
Формат/Информация : Audio Coding 3
Расширение режима : CM (complete main)
Идентификатор кодека : A_AC3
Продолжительность : 2 ч. 9 м.
Вид битрейта : Постоянный
Битрейт : 448 Кбит/сек
Каналы : 6 каналов
Расположение каналов : Front: L C R, Side: L R, LFE
Частота : 48,0 КГц
Битовая глубина : 16 бит
Метод сжатия : С потерями
Размер потока : 416 Мбайт (9%)
Заголовок : Rus
Язык : Russian
Аудио #2
Идентификатор : 3
Формат : AC-3
Формат/Информация : Audio Coding 3
Расширение режима : CM (complete main)
Идентификатор кодека : A_AC3
Продолжительность : 2 ч. 9 м.
Вид битрейта : Постоянный
Битрейт : 448 Кбит/сек
Каналы : 6 каналов
Расположение каналов : Front: L C R, Side: L R, LFE
Частота : 48,0 КГц
Битовая глубина : 16 бит
Метод сжатия : С потерями
Размер потока : 416 Мбайт (9%)
Заголовок : Eng
Язык : English
Текст #1
Идентификатор : 4
Формат : UTF-8
Идентификатор кодека : S_TEXT/UTF8
Идентификатор кодека/Информация : UTF-8 Plain Text
Заголовок : Rus
Язык : Russian
Текст #2
Идентификатор : 5
Формат : UTF-8
Идентификатор кодека : S_TEXT/UTF8
Идентификатор кодека/Информация : UTF-8 Plain Text
Заголовок : Eng
Язык : English
Меню
00:00:00.000 : :Chapter 01
00:10:02.977 : :Chapter 02
00:17:42.728 : :Chapter 03
00:27:33.693 : :Chapter 04
00:37:43.719 : :Chapter 05
00:43:53.631 : :Chapter 06
00:50:02.207 : :Chapter 07
00:58:16.784 : :Chapter 08
01:04:57.435 : :Chapter 09
01:11:15.312 : :Chapter 10
01:19:48.200 : :Chapter 11
01:30:14.575 : :Chapter 12
01:36:08.095 : :Chapter 13
01:43:21.862 : :Chapter 14
01:51:52.914 : :Chapter 15
01:57:54.817 : :Chapter 16

x264

x264 [info]: frame I:1856 Avg QP:14.50 size:183381
x264 [info]: frame P:41690 Avg QP:18.00 size: 46582
x264 [info]: frame B:143414 Avg QP:21.30 size: 10737
[Профиль] [ЛС]
Показать сообщения:    

Текущее время: Сегодня 17:33

Часовой пояс: GMT



Вы не можете начинать темы
Вы не можете отвечать на сообщения
Вы не можете редактировать свои сообщения
Вы не можете удалять свои сообщения
Вы не можете голосовать в опросах
Вы не можете прикреплять файлы к сообщениям
Вы не можете скачивать файлы