Аномализа / Anomalisa (2016) WEB-DLRip 720p | iTunes

 
Автор Сообщение

достали все ®

Пол:

Стаж: 1 год 8 месяцев

Сообщений: 6554



Награды: 12 (Подробнее)

Mega Seeder 1 (Количество: 1) Mega Seeder 5 (Количество: 1) Mega Releaser 1 (Количество: 1)
Торрент-статистика

Создавать темы 05-Май-2016 03:02

[Цитировать]

Информация о фильме
Название: Аномализа
Оригинальное название: Anomalisa
Год выхода: 2015
Жанр: мультфильм, драма, мелодрама, комедия, 18+
Режиссер: Дьюк Джонсон [Duke Johnson], Чарли Кауфман [Charlie Kaufman]
В ролях: Роли озвучивали: Дэвид Тьюлис, Дженнифер Джейсон Ли, Том Нунен
О фильме:
Майкл Стоун, автор книг по обслуживанию клиентов, страдает от неспособности контактировать с людьми. Однажды, в ходе очередной рабочей поездки, он встречает незнакомца, который меняет его мировосприятие.

Страна: США
Продолжительность: 01:30:50
Перевод: Профессиональный (Дублированный) - iTunes
Файл
Кодек: AVC
Качество: WEB-DL 720p
Видео: 1280x532 , 23,976 fps, ~3975 kbps avg, 0.243 bit/pixel
Звук:
Аудио #1: [RUS] 48 kHz, AC3 Dolby Digital, 3/2 (L,C,R,l,r) + LFE ch, ~384 kbps
Аудио #2: [ENG] 48 kHz, AC3 Dolby Digital, 3/2 (L,C,R,l,r) + LFE ch, ~384 kbps
Субтитры: русские (Константин Рякин), английские
Семпл

Скриншоты

MI

Общее
Уникальный идентификатор : 234122117773689415589681379327041707033 (0xB022479C25BC7FABB44814E969119C19)
Полное имя : Anomalisa.2015.WEB-DL 720p.mkv
Формат : Matroska
Версия формата : Version 4 / Version 2
Размер файла : 3,07 Гбайт
Продолжительность : 1 ч. 30 м.
Общий поток : 4835 Кбит/сек
Название фильма : Anomalisa.2015.WEB-DL 720p -Azureus-
Дата кодирования : UTC 2016-05-04 17:13:09
Программа кодирования : mkvmerge v7.1.0 ('Good Love') 32bit built on Jul 27 2014 12:59:18
Библиотека кодирования : libebml v1.3.0 + libmatroska v1.4.1
Видео
Идентификатор : 1
Формат : AVC
Формат/Информация : Advanced Video Codec
Профиль формата : Main@L3.1
Параметр CABAC формата : Нет
Параметр ReFrames формата : 2 кадра
Идентификатор кодека : V_MPEG4/ISO/AVC
Продолжительность : 1 ч. 30 м.
Битрейт : 4066 Кбит/сек
Ширина : 1280 пикселей
Высота : 532 пикселя
Соотношение сторон : 2,40:1
Режим частоты кадров : Постоянный
Частота кадров : 23,976 (23976/1000) кадра/сек
Цветовое пространство : YUV
Субдискретизация насыщенности : 4:2:0
Битовая глубина : 8 бит
Тип развёртки : Прогрессивная
Бит/(Пиксели*Кадры) : 0.249
Размер потока : 2,58 Гбайт (84%)
Язык : English
Default : Да
Forced : Нет
Цветовой диапазон : Limited
Основные цвета : BT.709
Характеристики трансфера : BT.709
Коэффициенты матрицы : BT.709
Аудио #1
Идентификатор : 2
Формат : AC-3
Формат/Информация : Audio Coding 3
Расширение режима : CM (complete main)
Параметр Endianness формата : Big
Идентификатор кодека : A_AC3
Продолжительность : 1 ч. 30 м.
Вид битрейта : Постоянный
Битрейт : 384 Кбит/сек
Каналы : 6 каналов
Расположение каналов : Front: L C R, Side: L R, LFE
Частота : 48,0 КГц
Частота кадров : 31,250 кадров/сек (1536 spf)
Метод сжатия : С потерями
Размер потока : 249 Мбайт (8%)
Заголовок : DUB
Язык : Russian
Default : Да
Forced : Нет
Аудио #2
Идентификатор : 3
Формат : AC-3
Формат/Информация : Audio Coding 3
Расширение режима : CM (complete main)
Параметр Endianness формата : Big
Идентификатор кодека : A_AC3
Продолжительность : 1 ч. 30 м.
Вид битрейта : Постоянный
Битрейт : 384 Кбит/сек
Каналы : 6 каналов
Расположение каналов : Front: L C R, Side: L R, LFE
Частота : 48,0 КГц
Частота кадров : 31,250 кадров/сек (1536 spf)
Метод сжатия : С потерями
Размер потока : 249 Мбайт (8%)
Заголовок : ENG
Язык : English
Default : Нет
Forced : Нет
Текст #1
Идентификатор : 4
Формат : UTF-8
Идентификатор кодека : S_TEXT/UTF8
Идентификатор кодека/Информация : UTF-8 Plain Text
Продолжительность : 1 ч. 28 м.
Битрейт : 95 бит/сек
Count of elements : 835
Размер потока : 62,3 Кбайт (0%)
Заголовок : rus sub
Язык : Russian
Default : Нет
Forced : Нет
Текст #2
Идентификатор : 5
Формат : UTF-8
Идентификатор кодека : S_TEXT/UTF8
Идентификатор кодека/Информация : UTF-8 Plain Text
Продолжительность : 1 ч. 27 м.
Битрейт : 103 бит/сек
Count of elements : 1649
Размер потока : 66,4 Кбайт (0%)
Заголовок : eng sub
Язык : English
Default : Нет
Forced : Нет
Меню
00:00:00.000 : en:Chapter 1
00:05:09.000 : en:Chapter 2
00:12:29.000 : en:Chapter 3
00:18:27.000 : en:Chapter 4
00:25:26.000 : en:Chapter 5
00:31:39.000 : en:Chapter 6
00:37:24.000 : en:Chapter 7
00:43:19.000 : en:Chapter 8
00:52:19.000 : en:Chapter 9
01:01:04.000 : en:Chapter 10
01:07:04.000 : en:Chapter 11
01:14:43.000 : en:Chapter 12
01:19:27.000 : en:Chapter 13
01:23:24.000 : en:Chapter 14
[Профиль] [ЛС]
Показать сообщения:    

Текущее время: Сегодня 08:49

Часовой пояс: GMT



Вы не можете начинать темы
Вы не можете отвечать на сообщения
Вы не можете редактировать свои сообщения
Вы не можете удалять свои сообщения
Вы не можете голосовать в опросах
Вы не можете прикреплять файлы к сообщениям
Вы не можете скачивать файлы