Аномализа / Anomalisa (2015) BDRemux 1080p от ivandubskoj | D | iTunes

 
Автор Сообщение

Russian Mafia ®

Пол:

Стаж: 1 год 8 месяцев

Сообщений: 4257



Награды: 10 (Подробнее)

Mega Seeder 1 (Количество: 1) Top Releaser 2 (Количество: 1) За внесенный вклад в развитие сайта (Количество: 1)
Торрент-статистика

Создавать темы 28-Май-2016 11:14

[Цитировать]

Информация о фильме
Название: Аномализа
Оригинальное название: Anomalisa
Год выхода: 2015
Жанр: Мультфильм, полнометражный, драма, мелодрама, комедия
Режиссёры: Дьюк Джонсон, Чарли Кауфман
В ролях: Дэвид Тьюлис, Дженнифер Джейсон Ли, Том Нунен
О фильме:
Майкл Стоун, автор книг по обслуживанию клиентов, страдает от неспособности контактировать с людьми. Однажды, в ходе очередной рабочей поездки, он встречает незнакомку, которая меняет его мировосприятие.

Возраст: 18+ (Зрителям, достигшим 18 лет. Запрещено для детей)
Рейтинг MPAA: R (Лицам до 17 лет обязательно присутствие взрослого)
Выпущено: США, Paramount Animation, Starburns Industries
Продолжительность: 01:30:36
Перевод: Дублированный [SDI-Media] | iTunes Russia
Оригинальная аудио-дорожка: Английская, английская (с комментариями и пояснениями создателей фильма)
Файл
Формат: MKV
Кодек: MPEG-4 AVC
Качество: BDRemux 1080p [Исходник: Anomalisa.2015.1080p.BluRay.AVC.DTS-HD.MA.5.1]
Видео: MPEG-4 AVC, 1920x1080 (16:9), 31048 Кбит/с, 23.976 кадр/с
Аудио #1: Русский, Dolby AC3, 48000 Гц, 384 Кбит/с, 6 каналов (5.1) - DUB [SDI-Media] | iTunes Russia
Аудио #2: Английский, DTS-HD MA, 48000 Гц, 3616 Кбит/с, 6 каналов (5.1) - Оригинал
Аудио #3: Английский, Dolby AC3, 48000 Гц, 640 Кбит/с, 6 каналов (5.1) - Оригинал (с комментариями и пояснениями создателей фильма)
Субтитры: Русские (форсированные, полные: iTunes Russia, К. Рякин), английские (полные, SDH) SRT
Навигация по главам: Есть (Сохранены оригинальные чаптеры, как на Blu-ray)

MediaInfo

General
Unique ID : 180256517265202701495453967841337682327 (0x879C24761BE9C790A1BCBB6C6ADE2997)
Complete name : Anomalisa.2015.BDRemux.1080p.mkv
Format : Matroska
Format version : Version 4 / Version 2
File size : 22.6 GiB
Duration : 1h 30mn
Overall bit rate mode : Variable
Overall bit rate : 35.7 Mbps
Movie name : Аномализа / Anomalisa (2015) Blu-ray Remux (1080p) от ivandubskoj
Encoded date : UTC 2016-05-28 08:44:51
Writing application : mkvmerge v7.9.0 ('Birds') 64bit
Writing library : libebml v1.3.1 + libmatroska v1.4.2
Video
ID : 1
Format : AVC
Format/Info : Advanced Video Codec
Format profile : High@L4.1
Format settings, CABAC : Yes
Format settings, ReFrames : 2 frames
Format settings, GOP : M=1, N=10
Codec ID : V_MPEG4/ISO/AVC
Duration : 1h 30mn
Bit rate mode : Variable
Width : 1 920 pixels
Height : 1 080 pixels
Display aspect ratio : 16:9
Frame rate mode : Constant
Frame rate : 23.976 fps
Color space : YUV
Chroma subsampling : 4:2:0
Bit depth : 8 bits
Scan type : Progressive
Title : Anomalisa (2015)
Language : English
Default : Yes
Forced : No
Audio #1
ID : 2
Format : AC-3
Format/Info : Audio Coding 3
Mode extension : CM (complete main)
Format settings, Endianness : Big
Codec ID : A_AC3
Duration : 1h 30mn
Bit rate mode : Constant
Bit rate : 384 Kbps
Channel(s) : 6 channels
Channel positions : Front: L C R, Side: L R, LFE
Sampling rate : 48.0 KHz
Bit depth : 16 bits
Compression mode : Lossy
Stream size : 249 MiB (1%)
Title : DUB [SDI-Media] [iTunes Russia]
Language : Russian
Default : Yes
Forced : No
Audio #2
ID : 3
Format : DTS
Format/Info : Digital Theater Systems
Format profile : MA / Core
Mode : 16
Format settings, Endianness : Big
Codec ID : A_DTS
Duration : 1h 30mn
Bit rate mode : Variable
Bit rate : Unknown / 1 509 Kbps
Channel(s) : 6 channels
Channel positions : Front: L C R, Side: L R, LFE
Sampling rate : 48.0 KHz
Bit depth : 24 bits
Compression mode : Lossless / Lossy
Title : Original
Language : English
Default : No
Forced : No
Audio #3
ID : 4
Format : AC-3
Format/Info : Audio Coding 3
Mode extension : CM (complete main)
Format settings, Endianness : Big
Codec ID : A_AC3
Duration : 1h 30mn
Bit rate mode : Constant
Bit rate : 640 Kbps
Channel(s) : 6 channels
Channel positions : Front: L C R, Side: L R, LFE
Sampling rate : 48.0 KHz
Bit depth : 16 bits
Compression mode : Lossy
Stream size : 415 MiB (2%)
Title : Original [Comments, Deive]
Language : English
Default : No
Forced : No
Text #1
ID : 5
Format : UTF-8
Codec ID : S_TEXT/UTF8
Codec ID/Info : UTF-8 Plain Text
Title : Forced [iTunes Russia]
Language : Russian
Default : Yes
Forced : No
Text #2
ID : 6
Format : UTF-8
Codec ID : S_TEXT/UTF8
Codec ID/Info : UTF-8 Plain Text
Title : Full [iTunes Russia]
Language : Russian
Default : No
Forced : No
Text #3
ID : 7
Format : UTF-8
Codec ID : S_TEXT/UTF8
Codec ID/Info : UTF-8 Plain Text
Title : Full [К. Рякин]
Language : Russian
Default : No
Forced : No
Text #4
ID : 8
Format : UTF-8
Codec ID : S_TEXT/UTF8
Codec ID/Info : UTF-8 Plain Text
Title : Full
Language : English
Default : No
Forced : No
Menu
00:00:00.000 : en:Chapter 01
00:05:09.350 : en:Chapter 02
00:12:29.415 : en:Chapter 03
00:18:27.189 : en:Chapter 04
00:18:27.856 : en:Chapter 05
00:25:26.399 : en:Chapter 06
00:31:39.814 : en:Chapter 07
00:37:24.367 : en:Chapter 08
00:43:19.930 : en:Chapter 09
00:52:19.219 : en:Chapter 10
01:01:04.452 : en:Chapter 11
01:07:04.979 : en:Chapter 12
01:14:43.187 : en:Chapter 13
01:19:26.595 : en:Chapter 14
01:23:24.332 : en:Chapter 15

Скриншоты



Автор ремукса - ivandubskoj
[Профиль] [ЛС]
Показать сообщения:    

Текущее время: Сегодня 08:04

Часовой пояс: GMT



Вы не можете начинать темы
Вы не можете отвечать на сообщения
Вы не можете редактировать свои сообщения
Вы не можете удалять свои сообщения
Вы не можете голосовать в опросах
Вы не можете прикреплять файлы к сообщениям
Вы не можете скачивать файлы