Аниматы - новая форма жизни / Animats. Des Espèces En Voie D'apparition (Одри Микаэлян / Audrey Mikaelian) [2015 г., Документальный, научно-популярный, SATRip]

 
Автор Сообщение

skorpionN ®

Пол:

Стаж: 1 год 8 месяцев

Сообщений: 592



Награды: 4 (Подробнее)

Mega Seeder 1 (Количество: 1) Mega Seeder 2 (Количество: 1) Mega Seeder 3 (Количество: 1)
Торрент-статистика

Создавать темы 18-Окт-2016 16:27

[Цитировать]

Аниматы - новая форма жизни / Animats. Des Espèces En Voie D'apparition
Год выпуска: 2015
Страна: Франция, AB Productions - Docland Yard
Жанр: Документальный, научно-популярный
Продолжительность: 00:53:00
Перевод: Профессиональный (двухголосый), озвучено на студии СВ-Дубль по заказу ГТРК Культура
Режиссер: Одри Микаэлян / Audrey Mikaelian
Описание: С давних времен ученые исследуют животный и растительный мир для решения тех или иных технических задач. В наши дни полным ходом идет работа над созданием искусственной жизни, и в современных научных лабораториях робототехники с помощью биологов проектируют машины, обладающие удивительными способностями...
Качество: SATRip
Формат: AVI
Видео кодек: XviD
Аудио кодек: AC3
Видео: 704x400 25.00 fps 1800 kbps
Аудио: AC3 2ch, 48kHz, 192 kbps

Скриншоты


MediaInfo:

Format : AVI
Format/Info : Audio Video Interleave
File size : 757 MiB
Duration : 52 min 58 s
Overall bit rate : 1 997 kb/s
Writing application : TMPGEnc Video Mastering Works 5 Version. 5.0.6.38
Writing library : TMPGEnc Video Mastering Works 5 Version. 5.0.6.38
Video
ID : 0
Format : MPEG-4 Visual
Format profile : Advanced Simple@L5
Format settings, BVOP : 2
Format settings, QPel : No
Format settings, GMC : No warppoints
Format settings, Matrix : Default (H.263)
Muxing mode : Packed bitstream
Codec ID : XVID
Codec ID/Hint : XviD
Duration : 52 min 58 s
Bit rate : 1 798 kb/s
Width : 704 pixels
Height : 400 pixels
Display aspect ratio : 16:9
Frame rate : 25.000 FPS
Color space : YUV
Chroma subsampling : 4:2:0
Bit depth : 8 bits
Scan type : Progressive
Compression mode : Lossy
Bits/(Pixel*Frame) : 0.255
Stream size : 681 MiB (90%)
Writing library : XviD 73
Audio
ID : 1
Format : AC-3
Format/Info : Audio Coding 3
Mode extension : CM (complete main)
Format settings, Endianness : Big
Codec ID : 2000
Duration : 52 min 58 s
Bit rate mode : Constant
Bit rate : 192 kb/s
Channel(s) : 2 channels
Channel positions : Front: L R
Sampling rate : 48.0 kHz
Frame rate : 31.250 FPS (1536 spf)
Compression mode : Lossy
Stream size : 72.8 MiB (10%)
Alignment : Aligned on interleaves
Interleave, duration : 240 ms (6.00 video frames)
Interleave, preload duration : 224 ms
[Профиль] [ЛС]
Кто просматривает тему:

Форум Тема Автор Размер
Rock (Рок) АнимациЯ - Распутье - 2015, MP3, 320 kbps достали все 91 MB
Отечественные мультфильмы Алдар и серый волк (Рим Шарафутдинов) [2013, короткометражный анимационный фильм, WEBRip-AVC 720p] painkiller 156 MB
Научная и техническая литература Андрей Кашкаров | Занимательная электроника. Нешаблонная энциклопедия полезных схем (2015) [PDF, FB2] достали все 17 MB
Adobe Photoshop Анимация с нуля в Adobe Edge Animate (2015) PCRec sergej644 4 GB
Отечественные мультфильмы Арба (Л. Бабаханов) [1978, Узбекфильм, кукольная анимация, TeleSynch] TorrentFilm 100 MB
Отечественные мультфильмы Баро и Тагар / Baro and Tagar (Дмитрий Волошин / Dmitri Voloshin) [2012, короткометражный анимационный фильм, WEBRip] TorrentFilm 16 MB
Фильмы 2011 года Беовульф / Beowulf (Роберт Земекис / Robert Zemeckis) [2007 г., Боевик, фэнтези, драма, приключения, анимация, HD-DVDRip] [Режиссёрская версия / Director's Cut] Dub Russian Mafia 1.46 GB
Фильмы (HD DVD, Blu-ray и BDRemux) Беовульф / Beowulf (Роберт Земекис / Robert Zemeckis) [2007 г., Боевик, фэнтези, драма, приключения, анимация. HDDVDRemux 1080p] [Director's Cut] Russian Mafia 19.94 GB
Показать сообщения:    

Текущее время: Сегодня 16:53

Часовой пояс: GMT



Вы не можете начинать темы
Вы не можете отвечать на сообщения
Вы не можете редактировать свои сообщения
Вы не можете удалять свои сообщения
Вы не можете голосовать в опросах
Вы не можете прикреплять файлы к сообщениям
Вы не можете скачивать файлы