Анжелика, маркиза ангелов / Angelique, marquise des anges (2013) BDRip 720p | GER Transfer

 
Автор Сообщение

sergej644 ®

Пол:

Стаж: 4 года 11 месяцев

Сообщений: 6046

Откуда: Soviet Union



Награды: Нет

Торрент-статистика

Создавать темы 15-Ноя-2014 08:38

[Цитировать]

Страна: Франция
Жанр: мелодрама, приключения
Год выпуска: 2013
Продолжительность: 01:52:48
Перевод: Профессиональный (полное дублирование) + Оригинальный-Режиссер: Ариэль Зейтун / Ariel Zeitoun-В ролях: Нора Арнезедер, Жерар Ланвен, Томер Сисле, Симон Абкарян, Давид Кросс, Мэтью Бужена, Мигель Херц-Кестранек, Юлиан Вайгенд, Райнер Фриб, Флоренс Косте-Описание: Франция XVII века. Юную красавицу Анжелику выдают замуж за графа де Пейрака, обладающего огромным состоянием и слывущего «колдуном». Поначалу Анжелика ненавидит мужа, но постепенно начинает понимать, что за суровой внешностью скрывается обаятельным, добрый, чуткий и справедливый мужчина. Между супругами вспыхивает настоящая любовь, но идиллия оказывается недолгой.
Короля Людовика XIV, проездом посетившего замок Де Пейрака, начинает терзать зависть к семейному счастью и богатству своего подданного. Де Пейрак заточен в Бастилию и ждет казни. Но Анжелика готова биться за свою любовь до последнего вздоха. На помощь энергичной и независимой красавице приходит давно влюбленный в нее Николя - предводитель парижских разбойников.- -Семпл-Качество: BDRip
Контейнер: MKV
Видео: AVC, 1280x534 (2.40:1), 3311 kbps, 23,976 fps, 0,202 bpp
Аудио №1: русский / AC3 / 5.1 / 48 kHz / 448 kbps
Аудио №2: французский / AC3 / 5.1 / 48 kHz / 448 kbps
Навигация по главам: есть-

Media Info

-------------------------------------------------------------------
x264 [info]: frame I:2523 Avg QP:13.69 size: 66052
x264 [info]: frame P:85811 Avg QP:16.56 size: 25517
x264 [info]: frame B:73947 Avg QP:20.54 size: 6984
-------------------------------------------------------------------
Format : Matroska
Format version : Version 2
File size : 3.38 GiB
Duration : 1h 52mn
Overall bit rate : 4 293 Kbps
Movie name : = Анжелика, маркиза ангелов / Angeique, marquise des anges BDRip 720p by SC Kosmos =
Encoded date : UTC 2014-11-15 07:31:40
Writing application : mkvmerge v3.3.0 ('Language') gebaut am Mar 24 2010 14:59:24
Writing library : libebml v0.8.0 + libmatroska v0.9.0
Video
ID : 1
Format : AVC
Format/Info : Advanced Video Codec
Format profile : High@L4.1
Format settings, CABAC : Yes
Format settings, ReFrames : 10 frames
Codec ID : V_MPEG4/ISO/AVC
Duration : 1h 52mn
Bit rate : 3 311 Kbps
Width : 1 280 pixels
Height : 534 pixels
Display aspect ratio : 2.40:1
Frame rate : 23.976 fps
Color space : YUV
Chroma subsampling : 4:2:0
Bit depth : 8 bits
Scan type : Progressive
Bits/(Pixel*Frame) : 0.202
Stream size : 2.61 GiB (77%)
Title : Анжелика, маркиза ангелов / Angeique, marquise des anges BDRip 720p by SC Kosmos
Writing library : x264 core 142 r2479 dd79a61
Encoding settings : cabac=1 / ref=10 / deblock=1:-2:-2 / analyse=0x3:0x113 / me=umh / subme=11 / psy=1 / psy_rd=1.00:0.00 / mixed_ref=1 / me_range=48 / chroma_me=1 / trellis=2 / 8x8dct=1 / cqm=0 / deadzone=21,11 / fast_pskip=0 / chroma_qp_offset=-2 / threads=12 / lookahead_threads=1 / sliced_threads=0 / nr=0 / decimate=1 / interlaced=0 / bluray_compat=0 / constrained_intra=0 / bframes=10 / b_pyramid=2 / b_adapt=1 / b_bias=0 / direct=3 / weightb=1 / open_gop=0 / weightp=2 / keyint=240 / keyint_min=23 / scenecut=40 / intra_refresh=0 / rc_lookahead=40 / rc=crf / mbtree=0 / crf=19.0 / qcomp=0.60 / qpmin=0 / qpmax=69 / qpstep=4 / vbv_maxrate=62500 / vbv_bufsize=78125 / crf_max=0.0 / nal_hrd=none / filler=0 / ip_ratio=1.40 / pb_ratio=1.30 / aq=1:1.00
Language : French
Default : No
Forced : No
Audio #1
ID : 2
Format : AC-3
Format/Info : Audio Coding 3
Mode extension : CM (complete main)
Codec ID : A_AC3
Duration : 1h 52mn
Bit rate mode : Constant
Bit rate : 448 Kbps
Channel(s) : 6 channels
Channel positions : Front: L C R, Side: L R, LFE
Sampling rate : 48.0 KHz
Bit depth : 16 bits
Compression mode : Lossy
Stream size : 361 MiB (10%)
Title : Дубляж
Language : Russian
Default : Yes
Forced : No
Audio #2
ID : 3
Format : AC-3
Format/Info : Audio Coding 3
Mode extension : CM (complete main)
Codec ID : A_AC3
Duration : 1h 52mn
Bit rate mode : Constant
Bit rate : 448 Kbps
Channel(s) : 6 channels
Channel positions : Front: L C R, Side: L R, LFE
Sampling rate : 48.0 KHz
Bit depth : 16 bits
Compression mode : Lossy
Stream size : 361 MiB (10%)
Language : French
Default : No
Forced : No
Menu
00:00:00.000 : en:00:00:00.000
00:01:42.019 : en:00:01:42.019
00:10:31.005 : en:00:10:31.005
00:19:40.262 : en:00:19:40.262
00:31:57.791 : en:00:31:57.791
00:43:15.968 : en:00:43:15.968
00:55:31.954 : en:00:55:31.954
01:06:25.940 : en:01:06:25.940
01:16:52.942 : en:01:16:52.942
01:28:31.890 : en:01:28:31.890
01:36:54.934 : en:01:36:54.934
01:49:11.879 : en:01:49:11.879
-

Скриншоты

[url=http://lostpic.net/?photo=1824034] [/url]
[Профиль] [ЛС]
Показать сообщения:    

Текущее время: Сегодня 12:12

Часовой пояс: GMT



Вы не можете начинать темы
Вы не можете отвечать на сообщения
Вы не можете редактировать свои сообщения
Вы не можете удалять свои сообщения
Вы не можете голосовать в опросах
Вы не можете прикреплять файлы к сообщениям
Вы не можете скачивать файлы