Андрон – Чёрный лабиринт / Andròn - The Black Labyrinth (2015) BDRemux 1080p | L

 
Автор Сообщение

достали все ®

Пол:

Стаж: 1 год 8 месяцев

Сообщений: 6610



Награды: 12 (Подробнее)

Top Releaser 2 (Количество: 1) Mega Seeder 1 (Количество: 1) За внесенный вклад в развитие сайта (Количество: 1)
Торрент-статистика

Создавать темы 27-Авг-2016 11:15

[Цитировать]

Информация о фильме
Название: Андрон – Чёрный лабиринт
Оригинальное название: Andròn - The Black Labyrinth
Год выхода: 2015
Жанр: Фантастика, боевик
Режиссер: Франческо Синкуемани
В ролях: Мишель Райан, Алек Болдуин, Лео Ховард, Гейл Морган Харольд III, Антония Кэмпбелл-Хьюджес, Клара Пасека, Джон Кортахарена, Маргарет Маде
О фильме:
Фильм рассказывает о группе людей, которую помещают в мрачный клаустрофобный лабиринт. Там им придется бороться за выживание, в то время как весь остальной мир будет наблюдать за ними.

Страна: Великобритания, Италия, Мальта
Студия: Ambi Pictures, Premiere Picture
Продолжительность: 01:36:30
Перевод: Любительский многоголосый (закадровый) | Студия Пиратского Дубляжа
Файл
Кодек: MPEG-4
Качество: BDRemux 1080p
Видео: 1920x1080, 27.7 Mbit/s, 23.976 fps
Звук:
Аудио #01: 48 kHz, DTS, 5.1, 1510 Kbps | Любительский многоголосый (закадровый) | СПД |
Аудио #02: 48 kHz, AC3, 5.1, 640 Kbps | Любительский многоголосый (закадровый) | СПД |
Аудио #03: 48 kHz, DTS-HD MA, 5.1, 3840 kbps | Оригинал |
Субтитры: Английские

MI

General
Unique ID : 177174393632197269562539605479152146176 (0x854A8C08AED02EECA8D02055545FD700)
Complete name : G:VideoAndron.2015.BDREMUX.1080p.ExKinoRay.mkv
Format : Matroska
Format version : Version 4 / Version 2
File size : 22.7 GiB
Duration : 1 h 36 min
Overall bit rate mode : Variable
Overall bit rate : 33.7 Mb/s
Movie name : Andron.2015.BDREMUX.1080p.ExKinoRay
Encoded date : UTC 2016-08-27 09:56:44
Writing application : mkvmerge v8.3.0 ('Over the Horizon') 64bit
Writing library : libebml v1.3.1 + libmatroska v1.4.2
Video
ID : 1
Format : AVC
Format/Info : Advanced Video Codec
Format profile : High@L4.1
Format settings, CABAC : Yes
Format settings, ReFrames : 4 frames
Codec ID : V_MPEG4/ISO/AVC
Duration : 1 h 36 min
Bit rate mode : Variable
Bit rate : 27.7 Mb/s
Maximum bit rate : 35.0 Mb/s
Width : 1 920 pixels
Height : 1 080 pixels
Display aspect ratio : 16:9
Frame rate mode : Constant
Frame rate : 23.976 (24000/1001) FPS
Color space : YUV
Chroma subsampling : 4:2:0
Bit depth : 8 bits
Scan type : Progressive
Bits/(Pixel*Frame) : 0.558
Stream size : 18.7 GiB (82%)
Language : English
Default : Yes
Forced : No
Audio #1
ID : 2
Format : DTS
Format/Info : Digital Theater Systems
Mode : 16
Format settings, Endianness : Big
Codec ID : A_DTS
Duration : 1 h 36 min
Bit rate mode : Constant
Bit rate : 1 509 kb/s
Channel(s) : 6 channels
Channel positions : Front: L C R, Side: L R, LFE
Sampling rate : 48.0 kHz
Frame rate : 93.750 FPS (512 spf)
Bit depth : 24 bits
Compression mode : Lossy
Stream size : 1.02 GiB (4%)
Title : MVO-DTS
Language : Russian
Default : Yes
Forced : No
Audio #2
ID : 3
Format : AC-3
Format/Info : Audio Coding 3
Mode extension : CM (complete main)
Format settings, Endianness : Big
Codec ID : A_AC3
Duration : 1 h 36 min
Bit rate mode : Constant
Bit rate : 640 kb/s
Channel(s) : 6 channels
Channel positions : Front: L C R, Side: L R, LFE
Sampling rate : 48.0 kHz
Frame rate : 31.250 FPS (1536 spf)
Compression mode : Lossy
Stream size : 442 MiB (2%)
Title : MVO-AC3
Language : Russian
Default : No
Forced : No
Audio #3
ID : 4
Format : DTS
Format/Info : Digital Theater Systems
Format profile : MA / Core
Mode : 16
Format settings, Endianness : Big
Codec ID : A_DTS
Duration : 1 h 36 min
Bit rate mode : Variable / Constant
Bit rate : 3 840 kb/s / 1 509 kb/s
Channel(s) : 6 channels
Channel positions : Front: L C R, Side: L R, LFE
Sampling rate : 48.0 kHz
Frame rate : 93.750 FPS (512 spf)
Bit depth : 24 bits
Compression mode : Lossless / Lossy
Stream size : 2.58 GiB (11%)
Title : Original
Language : English
Default : No
Forced : No
Text
ID : 5
Format : UTF-8
Codec ID : S_TEXT/UTF8
Codec ID/Info : UTF-8 Plain Text
Duration : 1 h 30 min
Bit rate : 26 b/s
Count of elements : 809
Stream size : 17.8 KiB (0%)
Title : Full
Language : English
Default : No
Forced : No
Menu
00:00:00.000 : en:00:00:00.000
00:07:47.926 : en:00:07:47.926
00:16:41.125 : en:00:16:41.125
00:24:54.827 : en:00:24:54.827
00:33:44.481 : en:00:33:44.481
00:42:02.687 : en:00:42:02.687
00:50:56.053 : en:00:50:56.053
00:59:44.581 : en:00:59:44.581
01:08:34.110 : en:01:08:34.110
01:18:36.921 : en:01:18:36.921
01:25:18.113 : en:01:25:18.113
01:31:45.542 : en:01:31:45.542

Скриншоты

Автор релиза:
[Профиль] [ЛС]
Кто просматривает тему:

Форум Тема Автор Размер
Фильмы 2014 года 2047 – Угроза смерти / 2047: Sights of Death (Алессандро Капоне) [2014, фантастика, боевик, триллер] HDRip | L1 BOSS 1.45 GB
Программы [Разное] HiMarket v3.6.1/Китайский андроид маркет [Android 1.5+, Multi] TorrentFilm 1 MB
Программы [Разное] ВКонтакте для Андроид 3.0 [Android 2.2+, RUS] TorrentFilm 6 MB
Отечественная Классика Александр Александрович Бестужев-Марлинский - Страшное гадание [Любовь Конева, 2012] Magnat 66 MB
Документальные HD Александровский дворец (RTGHD) [2012, Документальный, HDTV 1080i] TorrentFilm 1.78 GB
Фильмы (HD Rips | 720p, 1080p) Андрон – Чёрный лабиринт / Andròn - The Black Labyrinth (2015) WEB-DL 1080p | L достали все 3.34 GB
Фильмы 2015 года Андрон – Чёрный лабиринт / Andròn - The Black Labyrinth (2015) WEB-DLRip | L достали все 1.46 GB
R.G.TorrentFilm Video Андрон – Чёрный лабиринт / Andròn - The Black Labyrinth (Франческо Синкуемани / Francesco Cinquemani) [2015 г., Фантастика, боевик, WEB-DLRip] MVO (Parovoz Production) Один 777 744 MB
Показать сообщения:    

Текущее время: Сегодня 11:06

Часовой пояс: GMT



Вы не можете начинать темы
Вы не можете отвечать на сообщения
Вы не можете редактировать свои сообщения
Вы не можете удалять свои сообщения
Вы не можете голосовать в опросах
Вы не можете прикреплять файлы к сообщениям
Вы не можете скачивать файлы