Ангел-А / Angel-A (2005) BDRip 720p от New-Team | D, A, P1

 
Автор Сообщение

sergej644 ®

Пол:

Стаж: 4 года 11 месяцев

Сообщений: 6046

Откуда: Soviet Union



Награды: Нет

Торрент-статистика

Создавать темы 10-Фев-2015 09:13

[Цитировать]

«Самый красивый дар небес!»- Страна: Франция
Производство: Apipoulaï, Canal+ [fr], Europa Corp., Sofica Europacorp, TF1 Films Productions
Жанр: фэнтези, драма, мелодрама, комедия
Год выпуска: 2005
Продолжительность: 01:30:38
Перевод: Профессиональный (полное дублирование), Авторский (одноголосый закадровый) Андрей Гаврилов, Любительский (одноголосый закадровый) Вадим Архипов
Оригинальная аудиодорожка: английский
Cубтитры: русский, английский
Режиссер: Люк Бессон / Luc Besson
В ролях:
Жамель Деббуз, Ри Расмуссен, Жильбер Мелки, Серж Риабукин, Аким Шир, Эрик Балье, Луи Пора, Венус Бун, Жером Жесдон, Мишель Белло, Мишель Шесно, Оливье Клавери, Соланж Милход, Лоран Жамекур, Франк-Оливье Бонне, Аким Колор, Тони Десканвелль, Григорий Мануков, Ален Зеф, Жан-Марк Монтальто, Жил Милан, Тодд М. Талер, Гаэль Мэриетт...
Роли дублировали:
Вячеслав Баранов, Мария Овчинникова, Никита Прозоровский, Игорь Тарадайкин, Пётр Иващенко...
Описание:
28-летний Андре должен десятки тысяч евро различным бандитам по всему Парижу. Когда подходит срок расплаты, он понимает, что шансов расплатиться — нет. И в полиции, и в американском посольстве ему отказывают в помощи. Но вот, решив покончить с собой, он видит на мосту сногсшибательную красотку в очень маленьком черном платье, которая прыгает в Сену. Андре бросается за ней. Спасенная девушка обещает помочь Андре во всем: она придумывает удивительные способы добывать деньги и помогает решить проблемы с кредиторами. Но тут Андре начинает задаваться вопросом — почему эта восхитительная девушка так старается ради него?- -Исходник: BDRemux 1080p
Тип релиза: BDRip 720p
Контейнер: MKV
Видео: 1280x544 (2,35:1), 24 fps, H264 ~ 3057 kbps avg, 0.183 bit/pixel
Аудио: 48 kHz, Dolby Digital AC3 5.1, 448 kbps DUB
Аудио: 48 kHz, Dolby Digital AC3 5.1, 448 kbps Андрей Гаврилов
Аудио: 48 kHz, Dolby Digital AC3 2.0, 192 kbps Вадим Архипов
Аудио: 48 kHz, Dolby Digital AC3 5.1, 448 kbps Английский
Оригинальная навигация по главам: есть
Субтитры: SoftSub (srt)
Раздача от:

MediaInfo

Общее
Полное имя : Angel-A.2005.BDRip720p_[New-team]_by_AVP_Studio.mkv
Формат : Matroska
Версия формата : Version 4 / Version 2
Размер файла : 2,91 Гбайт
Продолжительность : 1 ч. 30 м.
Общий поток : 4594 Кбит/сек
Название фильма : Angel-A.2005.BDRip720p_[New-team]_by_AVP_Studio
Дата кодирования : UTC 2014-10-01 18:56:06
Программа кодирования : mkvmerge v7.2.0 ('On Every Street') 64bit built on Sep 13 2014 15:52:10
Библиотека кодирования : libebml v1.3.0 + libmatroska v1.4.1
DURATION : 01:24:16.874000000
NUMBER_OF_FRAMES : 1371
NUMBER_OF_BYTES : 53185
_STATISTICS_WRITING_APP : mkvmerge v7.2.0 ('On Every Street') 64bit built on Sep 13 2014 15:52:10
_STATISTICS_WRITING_DATE_UTC : 2014-10-01 18:56:06
_STATISTICS_TAGS : BPS DURATION NUMBER_OF_FRAMES NUMBER_OF_BYTES
Видео
Идентификатор : 1
Формат : AVC
Формат/Информация : Advanced Video Codec
Профиль формата : High@L4.1
Параметр CABAC формата : Да
Параметр ReFrames формата : 6 кадров
Идентификатор кодека : V_MPEG4/ISO/AVC
Продолжительность : 1 ч. 30 м.
Битрейт : 3057 Кбит/сек
Ширина : 1280 пикселей
Высота : 544 пикселя
Соотношение сторон : 2,35:1
Режим частоты кадров : Постоянный
Частота кадров : 24,000 кадра/сек
Цветовое пространство : YUV
Субдискретизация насыщенности : 4:2:0
Битовая глубина : 8 бит
Тип развёртки : Прогрессивная
Бит/(Пиксели*Кадры) : 0.183
Размер потока : 1,88 Гбайт (65%)
Заголовок : Источник BDRemux
Библиотека кодирования : x264 core 138 r2356 a1d3d17
Настройки программы : cabac=1 / ref=6 / deblock=1:-3:-3 / analyse=0x3:0x113 / me=umh / subme=10 / psy=1 / psy_rd=1.00:0.05 / mixed_ref=1 / me_range=32 / chroma_me=1 / trellis=2 / 8x8dct=1 / cqm=0 / deadzone=21,11 / fast_pskip=0 / chroma_qp_offset=-3 / threads=6 / lookahead_threads=1 / sliced_threads=0 / nr=0 / decimate=0 / interlaced=0 / bluray_compat=0 / constrained_intra=0 / bframes=8 / b_pyramid=2 / b_adapt=2 / b_bias=0 / direct=3 / weightb=1 / open_gop=0 / weightp=2 / keyint=240 / keyint_min=24 / scenecut=40 / intra_refresh=0 / rc_lookahead=40 / rc=2pass / mbtree=1 / bitrate=3057 / ratetol=1.0 / qcomp=0.60 / qpmin=10 / qpmax=51 / qpstep=4 / cplxblur=20.0 / qblur=0.5 / vbv_maxrate=50000 / vbv_bufsize=50000 / nal_hrd=none / ip_ratio=1.40 / aq=1:0.80
Язык : French
Default : Да
Forced : Нет
Аудио #1
Идентификатор : 2
Формат : AC-3
Формат/Информация : Audio Coding 3
Расширение режима : CM (complete main)
Параметр Endianness формата : Big
Идентификатор кодека : A_AC3
Продолжительность : 1 ч. 30 м.
Вид битрейта : Постоянный
Битрейт : 448 Кбит/сек
Каналы : 6 каналов
Расположение каналов : Front: L C R, Side: L R, LFE
Частота : 48,0 КГц
Битовая глубина : 16 бит
Метод сжатия : С потерями
Размер потока : 290 Мбайт (10%)
Заголовок : Источник BDRemux DUB
Язык : Russian
Default : Да
Forced : Нет
Аудио #2
Идентификатор : 3
Формат : AC-3
Формат/Информация : Audio Coding 3
Расширение режима : CM (complete main)
Параметр Endianness формата : Big
Идентификатор кодека : A_AC3
Продолжительность : 1 ч. 30 м.
Вид битрейта : Постоянный
Битрейт : 448 Кбит/сек
Каналы : 6 каналов
Расположение каналов : Front: L C R, Side: L R, LFE
Частота : 48,0 КГц
Битовая глубина : 16 бит
Метод сжатия : С потерями
Размер потока : 290 Мбайт (10%)
Заголовок : Источник BDRemux Андрей Гаврилов
Язык : Russian
Default : Нет
Forced : Нет
Аудио #3
Идентификатор : 4
Формат : AC-3
Формат/Информация : Audio Coding 3
Профиль формата : Dolby Digital
Расширение режима : CM (complete main)
Параметр Endianness формата : Big
Идентификатор кодека : A_AC3
Продолжительность : 1 ч. 30 м.
Вид битрейта : Постоянный
Битрейт : 192 Кбит/сек
Каналы : 2 канала
Расположение каналов : Front: L R
Частота : 48,0 КГц
Битовая глубина : 16 бит
Метод сжатия : С потерями
Размер потока : 124 Мбайт (4%)
Заголовок : Источник BDRemux Вадим Архипов
Язык : Russian
Default : Нет
Forced : Нет
Аудио #4
Идентификатор : 5
Формат : AC-3
Формат/Информация : Audio Coding 3
Расширение режима : CM (complete main)
Параметр Endianness формата : Big
Идентификатор кодека : A_AC3
Продолжительность : 1 ч. 30 м.
Вид битрейта : Постоянный
Битрейт : 448 Кбит/сек
Каналы : 6 каналов
Расположение каналов : Front: L C R, Side: L R, LFE
Частота : 48,0 КГц
Битовая глубина : 16 бит
Метод сжатия : С потерями
Размер потока : 290 Мбайт (10%)
Заголовок : Источник BDRemux
Язык : French
Default : Нет
Forced : Нет
Текст #1
Идентификатор : 6
Формат : UTF-8
Идентификатор кодека : S_TEXT/UTF8
Идентификатор кодека/Информация : UTF-8 Plain Text
Заголовок : Источник BDRemux SoftSub (srt)
Язык : Russian
Default : Нет
Forced : Нет
Текст #2
Идентификатор : 7
Формат : UTF-8
Идентификатор кодека : S_TEXT/UTF8
Идентификатор кодека/Информация : UTF-8 Plain Text
Заголовок : Источник BDRemux SoftSub (srt)
Язык : English
Default : Нет
Forced : Нет
Меню
00:00:00.000 : ru:Understand?
00:08:21.833 : ru:Until Midnight
00:13:30.500 : ru:Help Me
00:21:35.333 : ru:s That What You Want?
00:30:01.708 : ru:A Pledge
00:37:39.375 : ru:Mr. Franck
00:44:27.125 : ru:Take This
00:53:51.416 : ru:You Can Help
01:00:53.625 : ru:Fell Out of the Sky
01:08:26.916 : ru:The Discotheque
01:16:38.000 : ru:Want a Job?
01:22:37.541 : ru:My Name Is Pedro
01:25:34.000 : ru:Horse Racing

Скриншоты

[Профиль] [ЛС]
Показать сообщения:    

Текущее время: Сегодня 01:29

Часовой пояс: GMT



Вы не можете начинать темы
Вы не можете отвечать на сообщения
Вы не можете редактировать свои сообщения
Вы не можете удалять свои сообщения
Вы не можете голосовать в опросах
Вы не можете прикреплять файлы к сообщениям
Вы не можете скачивать файлы