Ангелы и Демоны / Angels & Demons (2009) BDRip 720p | 4K Remastered | Театральная версия | D

 
Автор Сообщение

BOSS ®

Пол:

Стаж: 2 года 1 месяц

Сообщений: 3718

Откуда: ODESSA



Награды: 20 (Подробнее)

Top Releaser 3 (Количество: 1) Mega Releaser 1 (Количество: 1) Top Releaser 4 (Количество: 1)
Торрент-статистика

Создавать темы 15-Ноя-2015 20:42

[Цитировать]

Информация о фильме
Название: Ангелы и Демоны
Оригинальное название: Angels & Demons
Год выхода: 2009
Жанр: триллер, детектив
Режиссер: Рон Ховард
В ролях: Том Хэнкс, Юэн МакГрегор, Аилит Зорор, Стеллан Скарсгард, Пьерфранческо Фавино, Николай Ли Каас, Армин Мюллер-Шталь, Туре Линдхардт, Дэвид Паскеси, Козимо Фуско
О фильме: Весь мир замер в ожидании свершения древнейшей церемонии — выбора главы католической церкви Папы Римского, но в судьбоносное решение вмешивается некая могущественная сила — заклятый враг католической церкви — таинственный орден Иллюминатов! Кандидаты на священный пост подвергаются свирепой ритуальной расправе один за другим. Перед лицом смертельной угрозы Ватикан вынужден обратиться за помощью к профессору — эксперту по религиозной символике Роберту Лэнгдону, который находит доказательства возрождения могущественного тайного братства, жестоко истребляемого в Средние века.
Вместе со своей напарницей — талантливым ученым Витторией Ветра — Лэнгдон начинает собственное расследование, увлекающие их в лабиринты замурованных склепов, тайных подземелий и заброшенных храмов — в самое сокровенное хранилище в мире. Мистической тропой символов ученые продвигаются к невероятной истине, которая дает Ватикану единственную надежду на спасение. Но в неистовом желании расквитаться и показать свое превосходство иллюминаты не остановятся ни перед чем! Настала пора для человечества узнать правду!

Страна: США, Италия
Продолжительность: 02:18:37
Перевод: Профессиональный (дублированный) Blu-ray + украинский
Cубтитры: русские (forcel,full), украинские (forced), английские (full,SDH)
Оригинальная аудиодорожка: английский
Файл
Кодек: x264
Качество: BDRip 720p [DON] | Angels & Demons 4K Remastered 1080p CAN Blu-ray AVC DTS-HD MA 5.1-EbP
Видео: 1280x536, 8756 kbps, 23.976 fps
Аудио 1: Russian: 48 kHz, AC3, 3/2 (L,C,R,l,r) + LFE ch, ~640.00 kbps avg|Blu-ray|
Аудио 2: Ukrainian: 48 kHz, AC3, 3/2 (L,C,R,l,r) + LFE ch, ~640.00 kbps avg |Blu-ray|
Аудио 3: English: 48 kHz, AC3, 3/2 (L,C,R,l,r) + LFE ch, ~640.00 kbps avg |Original|

Скриншоты

MediaInfo

General
Unique ID : 171833923811901581221916803521613352703 (0x8146028AF99709C6BB0E07352A0B4EFF)
Complete name : D:РипыAngels.&.Demons.2009.720p.BluRay.DD5.1.4K.Remastered.x264-Talian-.mkv
Format : Matroska
Format version : Version 2
File size : 10.5 GiB
Duration : 2h 18mn
Overall bit rate : 10.9 Mbps
Movie name : -Talian-
Encoded date : UTC 2013-09-11 20:48:15
Writing application : mkvmerge v5.7.0 ('The Whirlwind') built on Jul 8 2012 20:08:51
Writing library : libebml v1.2.3 + libmatroska v1.3.0
Video
ID : 1
Format : AVC
Format/Info : Advanced Video Codec
Format profile : High@L4.1
Format settings, CABAC : Yes
Format settings, ReFrames : 12 frames
Codec ID : V_MPEG4/ISO/AVC
Duration : 2h 18mn
Bit rate : 8 731 Kbps
Width : 1 280 pixels
Height : 536 pixels
Display aspect ratio : 2.40:1
Frame rate : 23.976 fps
Color space : YUV
Chroma subsampling : 4:2:0
Bit depth : 8 bits
Scan type : Progressive
Bits/(Pixel*Frame) : 0.531
Stream size : 8.45 GiB (80%)
Title : DON
Writing library : x264 core 120 r2164+656 2ff844c
Encoding settings : cabac=1 / ref=12 / deblock=1:-3:-3 / analyse=0x3:0x133 / me=umh / subme=10 / psy=1 / fade_compensate=0.00 / psy_rd=0.80:0.02 / mixed_ref=1 / me_range=32 / chroma_me=1 / trellis=2 / 8x8dct=1 / cqm=0 / deadzone=21,11 / fast_pskip=0 / chroma_qp_offset=-3 / threads=3 / sliced_threads=0 / nr=0 / decimate=0 / interlaced=0 / bluray_compat=0 / constrained_intra=0 / fgo=0 / bframes=8 / b_pyramid=2 / b_adapt=2 / b_bias=0 / direct=3 / weightb=1 / open_gop=0 / weightp=2 / keyint=250 / keyint_min=23 / scenecut=40 / intra_refresh=0 / rc=crf / mbtree=0 / crf=16.2 / qcomp=0.65 / qpmin=0 / qpmax=69 / qpstep=4 / ip_ratio=1.30 / pb_ratio=1.20 / aq=3:0.90 / zones=95150,95596,b=1.4/96843,101585,b=1.4
Language : English
Default : No
Forced : No
Audio #1
ID : 2
Format : AC-3
Format/Info : Audio Coding 3
Mode extension : CM (complete main)
Format settings, Endianness : Big
Codec ID : A_AC3
Duration : 2h 18mn
Bit rate mode : Constant
Bit rate : 640 Kbps
Channel(s) : 6 channels
Channel positions : Front: L C R, Side: L R, LFE
Sampling rate : 48.0 KHz
Bit depth : 16 bits
Compression mode : Lossy
Stream size : 635 MiB (6%)
Title : DUB-Blu-ray
Language : Russian
Default : Yes
Forced : No
Audio #2
ID : 3
Format : AC-3
Format/Info : Audio Coding 3
Mode extension : CM (complete main)
Format settings, Endianness : Big
Codec ID : A_AC3
Duration : 2h 18mn
Bit rate mode : Constant
Bit rate : 640 Kbps
Channel(s) : 6 channels
Channel positions : Front: L C R, Side: L R, LFE
Sampling rate : 48.0 KHz
Bit depth : 16 bits
Compression mode : Lossy
Stream size : 635 MiB (6%)
Title : DUB-Blu-ray
Language : Ukrainian
Default : No
Forced : No
Audio #3
ID : 4
Format : AC-3
Format/Info : Audio Coding 3
Mode extension : CM (complete main)
Format settings, Endianness : Big
Codec ID : A_AC3
Duration : 2h 18mn
Bit rate mode : Constant
Bit rate : 640 Kbps
Channel(s) : 6 channels
Channel positions : Front: L C R, Side: L R, LFE
Sampling rate : 48.0 KHz
Bit depth : 16 bits
Compression mode : Lossy
Stream size : 635 MiB (6%)
Title : Original
Language : English
Default : No
Forced : No
Text #1
ID : 5
Format : UTF-8
Codec ID : S_TEXT/UTF8
Codec ID/Info : UTF-8 Plain Text
Title : Sub-forced
Language : Russian
Default : Yes
Forced : No
Text #2
ID : 6
Format : UTF-8
Codec ID : S_TEXT/UTF8
Codec ID/Info : UTF-8 Plain Text
Title : Sub-full
Language : Russian
Default : No
Forced : No
Text #3
ID : 7
Format : UTF-8
Codec ID : S_TEXT/UTF8
Codec ID/Info : UTF-8 Plain Text
Title : Sub-forced
Language : Ukrainian
Default : No
Forced : No
Text #4
ID : 8
Format : UTF-8
Codec ID : S_TEXT/UTF8
Codec ID/Info : UTF-8 Plain Text
Title : Sub
Language : English
Default : No
Forced : No
Text #5
ID : 9
Format : UTF-8
Codec ID : S_TEXT/UTF8
Codec ID/Info : UTF-8 Plain Text
Title : Sub-SDH
Language : English
Default : No
Forced : No
Menu
00:00:00.000 : :00:00:00.000
00:09:30.945 : :00:09:30.945
00:17:33.010 : :00:17:33.010
00:25:40.998 : :00:25:40.998
00:32:22.274 : :00:32:22.274
00:43:36.864 : :00:43:36.864
00:51:52.609 : :00:51:52.609
01:01:11.918 : :01:01:11.918
01:10:47.577 : :01:10:47.577
01:17:13.963 : :01:17:13.963
01:26:21.510 : :01:26:21.510
01:37:39.562 : :01:37:39.562
01:47:41.455 : :01:47:41.455
01:58:02.367 : :01:58:02.367
02:03:03.334 : :02:03:03.334
02:07:28.140 : :02:07:28.140

x264

x264 [info]: frame I:1512 Avg QP:12.39 size:121296
x264 [info]: frame P:45224 Avg QP:13.60 size: 71295
x264 [info]: frame B:152680 Avg QP:15.60 size: 38588
x264 [info]: consecutive B-frames: 2.8% 3.3% 9.2% 20.5% 19.1% 31.2% 6.3% 4.9% 2.7%
[Профиль] [ЛС]
Показать сообщения:    

Текущее время: Сегодня 04:16

Часовой пояс: GMT



Вы не можете начинать темы
Вы не можете отвечать на сообщения
Вы не можете редактировать свои сообщения
Вы не можете удалять свои сообщения
Вы не можете голосовать в опросах
Вы не можете прикреплять файлы к сообщениям
Вы не можете скачивать файлы