Ангелы и Демоны / Angels & Demons (2009) BDRip 1080p

 
Автор Сообщение

Russian Mafia ®

Пол:

Стаж: 1 год 8 месяцев

Сообщений: 4257



Награды: 10 (Подробнее)

За внесенный вклад в развитие сайта (Количество: 1) Top Releaser 5 (Количество: 1) Top Releaser 4 (Количество: 1)
Торрент-статистика

Создавать темы 08-Сен-2015 10:44

[Цитировать]

«Они пришли, чтобы мстить»
Информация о фильме
Название: Ангелы и Демоны
Оригинальное название: Angels & Demons
Год выхода: 2009
Жанр: Триллер, детектив
Режиссер: Рон Ховард
В ролях: Том Хэнкс, Юэн МакГрегор, Айелет Зурер, Стеллан Скарсгард, Пьерфранческо Фавино, Николай Ли Каас, Армин Мюллер-Шталь, Туре Линдхардт, Дэвид Паскуэзи, Козимо Фуско
О фильме:
Весь мир замер в ожидании свершения древнейшей церемонии — выбора главы католической церкви Папы Римского, но в судьбоносное решение вмешивается некая могущественная сила — заклятый враг католической церкви — таинственный орден Иллюминатов! Кандидаты на священный пост подвергаются свирепой ритуальной расправе один за другим. Перед лицом смертельной угрозы Ватикан вынужден обратится за помощью к профессору — эксперту по религиозной символике Роберту Лэнгдону, который находит доказательства возрождения могущественного тайного братства, жестоко истребляемого в Средние века.
Вместе со своей напарницей — талантливым ученым Витторией Ветра — Лэнгдон начинает собственное расследование, увлекающие их в лабиринты замурованных склепов, тайных подземелий и заброшенных храмов — в самое сокровенное хранилище в мире. Мистической тропой символов ученые продвигаются к невероятной истине, которая дает Ватикану единственную надежду на спасение. Но в неистовом желании расквитаться и показать свое превосходство иллюминаты не остановятся ни перед чем! Настала пора для человечества узнать правду!

Страна: США, Италия
Студия: Columbia Pictures, Imagine Entertainment, Sony Pictures Entertainment (SPE)
Продолжительность: 02:18:37
Перевод: Дублированный |Blu-ray CEE| + Оригинал
Файл
Кодек: x264
Качество: BDRip 1080p (источник: Mont / Blu-ray Disc / 1080p [Mastered in 4K: Optimized For 4K Ultra HDTVs])
Видео: 1920х804 (2.40:1), 10600 Kbps, 23.976 fps, 0.286 bit/pixel
Аудио #1: 48.0 kHz, AC3 Dolby Digital, 3/2 (L,C,R,l,r) + LFE ch, 640 kbps [Дубляж, Blu-ray CEE]
Аудио #2: 48.0 kHz, AC3 Dolby Digital, 3/2 (L,C,R,l,r) + LFE ch, 640 kbps [Английский]
Субтитры: Русские [форсированные, полные], Английские [полные, SDH]
Семпл

x264

x264 [info]: frame I:1443 Avg QP:14.40 size:207435
x264 [info]: frame P:50045 Avg QP:16.75 size: 94531
x264 [info]: frame B:147928 Avg QP:19.25 size: 40474

MediaInfo

General
Unique ID : 201633111405121042612512138865818141952 (0x97B11FEC91B4E50DAA2DA81057130500)
Complete name : E:Angels.&.Demons.2009.x264.BDRip.1080p.mkv
Format : Matroska
Format version : Version 2
File size : 11.5 GiB
Duration : 2h 18mn
Overall bit rate : 11.9 Mbps
Encoded date : UTC 2013-09-19 18:43:05
Writing application : mkvmerge v5.8.0 ('No Sleep / Pillow') built on Sep 2 2012 15:37:04
Writing library : libebml v1.2.3 + libmatroska v1.3.0
Video
ID : 1
Format : AVC
Format/Info : Advanced Video Codec
Format profile : High@L4.1
Format settings, CABAC : Yes
Format settings, ReFrames : 5 frames
Codec ID : V_MPEG4/ISO/AVC
Duration : 2h 18mn
Bit rate : 10.6 Mbps
Width : 1 920 pixels
Height : 804 pixels
Display aspect ratio : 2.40:1
Frame rate mode : Constant
Frame rate : 23.976 fps
Color space : YUV
Chroma subsampling : 4:2:0
Bit depth : 8 bits
Scan type : Progressive
Bits/(Pixel*Frame) : 0.286
Stream size : 10.0 GiB (87%)
Writing library : x264 core 138 r2356 a1d3d17
Encoding settings : cabac=1 / ref=5 / deblock=1:-3:-3 / analyse=0x3:0x133 / me=tesa / subme=11 / psy=1 / psy_rd=1.00:0.07 / mixed_ref=1 / me_range=32 / chroma_me=1 / trellis=2 / 8x8dct=1 / cqm=0 / deadzone=21,11 / fast_pskip=0 / chroma_qp_offset=-3 / threads=12 / lookahead_threads=1 / sliced_threads=0 / nr=0 / decimate=0 / interlaced=0 / bluray_compat=0 / constrained_intra=0 / bframes=5 / b_pyramid=2 / b_adapt=2 / b_bias=0 / direct=3 / weightb=0 / open_gop=0 / weightp=2 / keyint=240 / keyint_min=23 / scenecut=40 / intra_refresh=0 / rc=2pass / mbtree=0 / bitrate=10600 / ratetol=1.0 / qcomp=0.60 / qpmin=0 / qpmax=69 / qpstep=4 / cplxblur=20.0 / qblur=0.5 / ip_ratio=1.40 / pb_ratio=1.30 / aq=1:1.00
Language : English
Default : Yes
Forced : No
Audio #1
ID : 2
Format : AC-3
Format/Info : Audio Coding 3
Mode extension : CM (complete main)
Format settings, Endianness : Big
Codec ID : A_AC3
Duration : 2h 18mn
Bit rate mode : Constant
Bit rate : 640 Kbps
Channel count : 6 channels
Channel positions : Front: L C R, Side: L R, LFE
Sampling rate : 48.0 KHz
Bit depth : 16 bits
Compression mode : Lossy
Stream size : 635 MiB (5%)
Title : AC3 5.1ch 640 kbps - Дубляж, Blu-ray CEE
Language : Russian
Default : Yes
Forced : No
Audio #2
ID : 3
Format : AC-3
Format/Info : Audio Coding 3
Mode extension : CM (complete main)
Format settings, Endianness : Big
Codec ID : A_AC3
Duration : 2h 18mn
Bit rate mode : Constant
Bit rate : 640 Kbps
Channel count : 6 channels
Channel positions : Front: L C R, Side: L R, LFE
Sampling rate : 48.0 KHz
Bit depth : 16 bits
Compression mode : Lossy
Stream size : 635 MiB (5%)
Title : AC3 5.1ch 640 kbps - Английский
Language : English
Default : No
Forced : No
Text #1
ID : 4
Format : UTF-8
Codec ID : S_TEXT/UTF8
Codec ID/Info : UTF-8 Plain Text
Title : Русские [форсированные]
Language : Russian
Default : Yes
Forced : No
Text #2
ID : 5
Format : UTF-8
Codec ID : S_TEXT/UTF8
Codec ID/Info : UTF-8 Plain Text
Title : Русские [полные]
Language : Russian
Default : No
Forced : No
Text #3
ID : 6
Format : UTF-8
Codec ID : S_TEXT/UTF8
Codec ID/Info : UTF-8 Plain Text
Title : Английские [полные]
Language : English
Default : No
Forced : No
Text #4
ID : 7
Format : UTF-8
Codec ID : S_TEXT/UTF8
Codec ID/Info : UTF-8 Plain Text
Title : Английские [SDH]
Language : English
Default : No
Forced : No
Menu
00:00:00.000 : en:1
00:09:30.945 : en:2
00:17:33.010 : en:3
00:25:40.997 : en:4
00:32:22.273 : en:5
00:43:36.864 : en:6
00:51:52.609 : en:7
01:01:11.918 : en:8
01:10:47.576 : en:9
01:17:13.962 : en:10
01:26:21.509 : en:11
01:37:39.561 : en:12
01:47:41.413 : en:13
01:58:02.366 : en:14
02:03:03.334 : en:15
02:07:28.140 : en:16
[Профиль] [ЛС]
Показать сообщения:    

Текущее время: Сегодня 06:07

Часовой пояс: GMT



Вы не можете начинать темы
Вы не можете отвечать на сообщения
Вы не можете редактировать свои сообщения
Вы не можете удалять свои сообщения
Вы не можете голосовать в опросах
Вы не можете прикреплять файлы к сообщениям
Вы не можете скачивать файлы