"Ангара": В Космос По-Русски (Дмитрий Ушаков) [2015, Документальный, HDTV 720p]

 
Автор Сообщение

TorrentFilm ®

Пол:

Стаж: 2 года

Сообщений: 7741



Награды: Нет

Торрент-статистика

Создавать темы 27-Мар-2015 00:02

[Цитировать]

"Ангара": В Космос По-Русски- Год выпуска: 2015
Страна: Россия
Канал: Россия HD
Жанр: Документальный
Продолжительность: 0:44:25
Автор сценария: Вадим Кондаков
Режиссер: Дмитрий Ушаков-Описание: 23 декабря 2014 года. Космодром Плесецк. В космос уходит ракета, названная в честь великой русской реки - "Ангара". Такой ракеты у нас не было еще никогда. Она вобрала в себя все лучшие достижения советской и российской космонавтики, и будущее русского космоса во многом зависело от того, когда и как эту ракету научат летать.
Создатели фильма расскажут, как создавалась "Ангара", почему ее называют "космическим конструктором", какие политические интриги и атаки конкурентов на международном рынке приходилось преодолевать ее разработчикам и поможет ли "Ангара" добраться человеку до Луны и Марса.-Автор рипа: lrn
Автор записи: Files-x
Сэмпл: sendfile-Тип релиза: HDTV 720p
Контейнер: MKV
Видео: 1280x720 (16:9), 25,000 fps, H264, ~4000 kbps avg, ~0.174 bit/pixel
Аудио: 48 kHz, AC3 Dolby Digital, 2/0 (L,R) ch, ~192.00 kbps avg-

MediaInfo

GeneralUnique ID : 201623750403675335480242198012061753041 (0x97AF52641EB6ECC8A29B1835741F1ED1)Complete name : E:\uTorrent.Temp\Temp\Angara.V.Kosmos.Po.Russki.2015.HDTV.720p.x264-lrn.mkvFormat : MatroskaFormat version : Version 4 / Version 2File size : 1.30 GiBDuration : 44mn 25sOverall bit rate : 4 193 KbpsMovie name : Angara.V.Kosmos.Po.Russki.2015.HDTV.720p.x264-lrnEncoded date : UTC 2010-02-22 21:41:31Writing application : mkvmerge v5.9.0 ('On The Loose') built on Dec 9 2012 15:37:01Writing library : libebml v1.3.0 + libmatroska v1.4.0DURATION : 00:44:25.480000000NUMBER_OF_FRAMES : 66637NUMBER_OF_BYTES : 1332354366_STATISTICS_WRITING_APP : mkvmerge v7.0.0 ('Where We Going') 32bit built on Jun 9 2014 15:08:34_STATISTICS_WRITING_DATE_UT : 2015-03-20 10:47:31_STATISTICS_TAGS : BPS DURATION NUMBER_OF_FRAMES NUMBER_OF_BYTES
VideoID : 1Format : AVCFormat/Info : Advanced Video CodecFormat profile : High@L4.1Format settings, CABAC : YesFormat settings, ReFrames : 8 framesCodec ID : V_MPEG4/ISO/AVCDuration : 44mn 25sBit rate : 4 000 KbpsWidth : 1 280 pixelsHeight : 720 pixelsDisplay aspect ratio : 16:9Frame rate mode : ConstantFrame rate : 25.000 fpsColor space : YUVChroma subsampling : 4:2:0Bit depth : 8 bitsScan type : ProgressiveBits/(Pixel*Frame) : 0.174Stream size : 1.22 GiB (93%)Writing library : x264 core 142 r2431 ac76440Encoding settings : cabac=1 / ref=8 / deblock=1:-3:-3 / analyse=0x3:0x133 / me=umh / subme=9 / psy=1 / psy_rd=1.00:0.00 / mixed_ref=1 / me_range=32 / chroma_me=1 / trellis=2 / 8x8dct=1 / cqm=0 / deadzone=21,11 / fast_pskip=1 / chroma_qp_offset=-2 / threads=12 / lookahead_threads=2 / sliced_threads=0 / nr=0 / decimate=1 / interlaced=0 / bluray_compat=0 / constrained_intra=0 / bframes=8 / b_pyramid=2 / b_adapt=2 / b_bias=0 / direct=3 / weightb=1 / open_gop=0 / weightp=2 / keyint=250 / keyint_min=25 / scenecut=40 / intra_refresh=0 / rc_lookahead=50 / rc=2pass / mbtree=1 / bitrate=4000 / ratetol=1.0 / qcomp=0.60 / qpmin=0 / qpmax=69 / qpstep=4 / cplxblur=20.0 / qblur=0.5 / vbv_maxrate=62500 / vbv_bufsize=78125 / nal_hrd=none / filler=0 / ip_ratio=1.40 / aq=1:1.00Default : YesForced : No
AudioID : 2Format : AC-3Format/Info : Audio Coding 3Mode extension : CM (complete main)Format settings, Endianness : BigCodec ID : A_AC3Duration : 44mn 25sBit rate mode : ConstantBit rate : 192 KbpsChannel(s) : 2 channelsChannel positions : Front: L RSampling rate : 48.0 KHzBit depth : 16 bitsCompression mode : LossyStream size : 61.0 MiB (5%)Language : RussianDefault : YesForced : No

x264 log

raw [info]: 1280x720p 1:1 @ 25/1 fps (cfr)x264 [info]: using SAR=1/1x264 [info]: using cpu capabilities: MMX2 SSE2Fast SSSE3 SSE4.2 AVXx264 [info]: profile High, level 4.1x264 [info]: frame I:505 Avg QP:14.08 size:114306x264 [info]: frame P:17765 Avg QP:16.56 size: 37036x264 [info]: frame B:48367 Avg QP:19.41 size: 12750x264 [info]: consecutive B-frames: 3.2% 3.9% 5.2% 69.7% 8.0% 5.8% 1.5% 2.1% 0.6%x264 [info]: mb I I16..4: 8.0% 72.3% 19.7%x264 [info]: mb P I16..4: 3.8% 12.5% 1.5% P16..4: 41.6% 18.7% 11.3% 0.5% 0.2% skip:10.0%x264 [info]: mb B I16..4: 0.4% 1.8% 0.2% B16..8: 34.3% 9.8% 2.0% direct: 9.2% skip:42.2% L0:42.3% L1:44.1% BI:13.6%x264 [info]: 8x8 transform intra:71.7% inter:64.0%x264 [info]: direct mvs spatial:95.9% temporal:4.1%x264 [info]: coded y,uvDC,uvAC intra: 69.2% 75.3% 42.8% inter: 25.7% 30.4% 2.5%x264 [info]: i16 v,h,dc,p: 38% 23% 7% 33%x264 [info]: i8 v,h,dc,ddl,ddr,vr,hd,vl,hu: 15% 13% 9% 7% 10% 12% 12% 10% 12%x264 [info]: i4 v,h,dc,ddl,ddr,vr,hd,vl,hu: 18% 15% 8% 7% 11% 11% 11% 9% 11%x264 [info]: i8c dc,h,v,p: 34% 30% 21% 15%x264 [info]: Weighted P-Frames: Y:6.8% UV:3.8%x264 [info]: ref P L0: 52.9% 9.8% 15.8% 6.4% 4.8% 4.0% 3.4% 2.6% 0.3% 0.0%x264 [info]: ref B L0: 78.7% 10.1% 4.8% 2.5% 2.0% 1.2% 0.7%x264 [info]: ref B L1: 95.0% 5.0%x264 [info]: kb/s:3998.84encoded 66637 frames, 12.94 fps, 3998.84 kb/s

Скриншоты

-
[Профиль] [ЛС]
Показать сообщения:    

Текущее время: Сегодня 11:07

Часовой пояс: GMT



Вы не можете начинать темы
Вы не можете отвечать на сообщения
Вы не можете редактировать свои сообщения
Вы не можете удалять свои сообщения
Вы не можете голосовать в опросах
Вы не можете прикреплять файлы к сообщениям
Вы не можете скачивать файлы