Анатомия убийства / Anatomy of a Murder (1959) BDRip-AVC от Koenig | P, A

 
Автор Сообщение

Russian Mafia ®

Пол:

Стаж: 1 год 8 месяцев

Сообщений: 4257



Награды: 10 (Подробнее)

Mega Seeder 1 (Количество: 1) Mega Seeder 4 (Количество: 1) Top Releaser 3 (Количество: 1)
Торрент-статистика

Создавать темы 15-Окт-2016 10:42

[Цитировать]

Информация о фильме
Название: Анатомия убийства
Оригинальное название: Anatomy of a Murder
Год выхода: 1959
Жанр: триллер, драма, криминал, детектив
Режиссер: Отто Премингер
В ролях: Ли Ремик, Бен Газзара, Джеймс Стюарт, Русс Браун, Артур О'Коннелл, Ив Арден, Кэтрин Грант, Джордж К. Скотт, Орсон Бин, Мюррэй Хэмилтон, Кен Линч, Джон Куолен, Ройал Бил, Ховард МакНиар, Александр Кэмпбелл, Нед Уэвер, Джимми Конлин, Джозеф Кернс, Дон Росс, Джеймс Уотерс
О фильме:
Лейтенант армии Фредерик Манайон арестован за убийство владельца бара Барни Куилла. Он утверждает, что бармен избил и изнасиловал его жену Лауру. И, хотя Лаура полностью подтверждает версию мужа, судмедэксперт не может найти доказательств ее изнасилования. Защищать Майнона поручают Полу Биглеру, скромному провинциальному адвокату. Обвиняемый не идет на сотрудничество, дело ведет судья из другого города. Биглер понимает, что предстоит очень трудный процесс, и шансов выиграть дело у него не так уж много. Фильм снят по роману-бестселлеру 1958 г., написанному одним судьей из штата Мичиган под псевдонимом Роберт Тревор.

Страна: США
Студия: Carlyle Productions
Продолжительность: 02:40:46
Перевод: Профессиональный многоголосый, авторский
Файл
Кодек: x264
Качество: BDRip-AVC (Anatomy Of A Murder 1959 Criterion Collection 1080p Bluray AVC DTS-HD MA 5.1-HDT)
Видео: MPEG-4 AVC, 3054 Кбит/с, 1024х552, 23.976 кадр/с
Аудио #1: AC3, 2 ch, 192 Кбит/с | Профессиональный многоголосый (ОРТ)
Аудио #2: AC3, 2 ch, 192 Кбит/с | Авторский (Алексей Медведев)
Аудио #3: AC3, 6 ch, 448 Кбит/с | Английский
Субтитры: Английские

MediaInfo

Общее
Уникальный идентификатор : 241119433907793195478540979324358420798 (0xB565E9EE61CFA59B9CDE0FCD5CCEE93E)
Полное имя : Anatomy.Of.A.Murder.1959.BDRip-AVC.mkv
Формат : Matroska
Версия формата : Version 4 / Version 2
Размер файла : 4,37 Гбайт
Продолжительность : 2 ч. 40 м.
Общий поток : 3889 Кбит/сек
Название фильма : Anatomy of a Murder by Koenig
Дата кодирования : UTC 2016-10-15 07:08:19
Программа кодирования : mkvmerge v9.2.0 ('Photograph') 32bit
Библиотека кодирования : libebml v1.3.3 + libmatroska v1.4.4
Обложка : Yes
Attachments : cover.jpg
Видео
Идентификатор : 1
Формат : AVC
Формат/Информация : Advanced Video Codec
Профиль формата : High@L4.1
Параметр CABAC формата : Да
Параметр ReFrames формата : 11 кадров
Идентификатор кодека : V_MPEG4/ISO/AVC
Продолжительность : 2 ч. 40 м.
Битрейт : 3054 Кбит/сек
Ширина : 1024 пикселя
Высота : 552 пикселя
Соотношение сторон : 1,85:1
Режим частоты кадров : Постоянный
Частота кадров : 23,976 (24000/1001) кадра/сек
Цветовое пространство : YUV
Субдискретизация насыщенности : 4:2:0
Битовая глубина : 8 бит
Тип развёртки : Прогрессивная
Бит/(Пиксели*Кадры) : 0.225
Размер потока : 3,43 Гбайт (79%)
Библиотека кодирования : x264 core 148 r2692 64f4e24
Настройки программы : cabac=1 / ref=11 / deblock=1:-3:-3 / analyse=0x3:0x133 / me=umh / subme=10 / psy=1 / psy_rd=1.00:0.10 / mixed_ref=1 / me_range=32 / chroma_me=1 / trellis=2 / 8x8dct=1 / cqm=0 / deadzone=21,11 / fast_pskip=1 / chroma_qp_offset=-3 / threads=3 / lookahead_threads=1 / sliced_threads=0 / nr=0 / decimate=1 / interlaced=0 / bluray_compat=0 / constrained_intra=0 / bframes=12 / b_pyramid=2 / b_adapt=2 / b_bias=0 / direct=3 / weightb=1 / open_gop=0 / weightp=2 / keyint=240 / keyint_min=23 / scenecut=40 / intra_refresh=0 / rc_lookahead=40 / rc=2pass / mbtree=1 / bitrate=3054 / ratetol=1.0 / qcomp=0.60 / qpmin=0 / qpmax=51 / qpstep=4 / cplxblur=20.0 / qblur=0.5 / vbv_maxrate=50000 / vbv_bufsize=62500 / nal_hrd=none / filler=0 / ip_ratio=1.40 / aq=1:1.00
Default : Да
Forced : Нет
Аудио #1
Идентификатор : 2
Формат : AC-3
Формат/Информация : Audio Coding 3
Расширение режима : CM (complete main)
Параметр Endianness формата : Big
Идентификатор кодека : A_AC3
Продолжительность : 2 ч. 40 м.
Вид битрейта : Постоянный
Битрейт : 192 Кбит/сек
Каналы : 2 канала
Расположение каналов : Front: L R
Частота : 48,0 КГц
Частота кадров : 31,250 кадров/сек (1536 spf)
Метод сжатия : С потерями
Размер потока : 221 Мбайт (5%)
Заголовок : MVO - ОРТ
Язык : Russian
Default : Да
Forced : Нет
Аудио #2
Идентификатор : 3
Формат : AC-3
Формат/Информация : Audio Coding 3
Расширение режима : CM (complete main)
Параметр Endianness формата : Big
Идентификатор кодека : A_AC3
Продолжительность : 2 ч. 40 м.
Вид битрейта : Постоянный
Битрейт : 192 Кбит/сек
Каналы : 2 канала
Расположение каналов : Front: L R
Частота : 48,0 КГц
Частота кадров : 31,250 кадров/сек (1536 spf)
Метод сжатия : С потерями
Размер потока : 221 Мбайт (5%)
Заголовок : AVO - Алексей Медведев
Язык : Russian
Default : Нет
Forced : Нет
Аудио #3
Идентификатор : 4
Формат : AC-3
Формат/Информация : Audio Coding 3
Расширение режима : CM (complete main)
Параметр Endianness формата : Big
Идентификатор кодека : A_AC3
Продолжительность : 2 ч. 40 м.
Вид битрейта : Постоянный
Битрейт : 448 Кбит/сек
Каналы : 6 каналов
Расположение каналов : Front: L C R, Side: L R, LFE
Частота : 48,0 КГц
Частота кадров : 31,250 кадров/сек (1536 spf)
Метод сжатия : С потерями
Размер потока : 515 Мбайт (12%)
Заголовок : Original
Язык : English
Default : Нет
Forced : Нет
Текст
Идентификатор : 5
Формат : UTF-8
Идентификатор кодека : S_TEXT/UTF8
Идентификатор кодека/Информация : UTF-8 Plain Text
Продолжительность : 2 ч. 40 м.
Битрейт : 104 бит/сек
Count of elements : 2658
Размер потока : 123 Кбайт (0%)
Язык : English
Default : Да
Forced : Нет
Меню
00:00:00.000 : en:Chapter 1
00:10:33.341 : en:Chapter 2
00:24:05.694 : en:Chapter 3
00:36:18.801 : en:Chapter 4
00:42:58.117 : en:Chapter 5
00:52:25.392 : en:Chapter 6
00:58:06.024 : en:Chapter 7
01:06:17.181 : en:Chapter 8
01:15:34.780 : en:Chapter 9
01:25:29.541 : en:Chapter 10
01:39:17.618 : en:Chapter 11
01:46:35.597 : en:Chapter 12
01:53:30.386 : en:Chapter 13
01:59:19.277 : en:Chapter 14
02:13:13.527 : en:Chapter 15
02:21:22.599 : en:Chapter 16
02:28:16.929 : en:Chapter 17
02:34:03.150 : en:Chapter 18
02:40:46.011 : en:Chapter 19

Скриншоты

[Профиль] [ЛС]
Кто просматривает тему:

Форум Тема Автор Размер
Сhanson (Шансон) Анатолий Могилевский - "Лучшие песни" - 1995, FLAC (image+.cue), lossless sergej644 370 MB
Discovery Discovery: Анатомия секса / Discovery: Anatomy Of Sex (Джонатан Группер / Jonathan Grupper) [2005, США, документальный, познавательный, физиология, психология, DVDRip] DVO reversefile 700 MB
Отечественные мультфильмы SOS (Анатолий Солин) [1973, мультфильм для взрослых, рисованный, DVDRip] TorrentFilm 100 MB
Разная литература Анатолий Букреев, Г. Вестон ДеУолт - Эверест. Смертельное восхождение (2015) FB2 достали все 10 MB
Фантастика, фэнтези Анатолий Дроздов, Андрей Муравьев | Непрощенные (2015) [FB2] достали все 1 MB
Фантастика и фэнтези Анатолий Половинкин – Опасный груз или А-44 (2016) MP3 Swager 387 MB
Научная и техническая литература Анатолий Терещенко - Сборник произведений (14 книг) [2004-2016, Военная история, Cпецслужбы, FB2] обновлено 08.02.2016 Garik014 28 MB
Праздничные концерты Анатомия Года на НТВ (31.12.2014) [2014 г., Pop, DVB] sergej644 8 GB
Показать сообщения:    

Текущее время: Сегодня 16:25

Часовой пояс: GMT



Вы не можете начинать темы
Вы не можете отвечать на сообщения
Вы не можете редактировать свои сообщения
Вы не можете удалять свои сообщения
Вы не можете голосовать в опросах
Вы не можете прикреплять файлы к сообщениям
Вы не можете скачивать файлы