Анатомия любви / Endless Love (Шана Фест / Shana Feste) [2014, США, драма, мелодрама, BDRip] Dub

 
Автор Сообщение

Создавать темы 14-Июл-2014 09:08

Анатомия любви / Endless Love
«Она никогда не будет прежней»
-Страна: США
Жанр: драма, мелодрама
Год выпуска: 2014
Продолжительность: 01:44:38
Перевод: Профессиональный (дублированный) | Лицензия BD-СЕЕ |
Cубтитры: нет
Оригинальная аудиодорожка: нет-Режиссер: Шана Фест / Shana Feste
В ролях: Алекс Петтифер, Габриэлла Уайлд, Брюс Гринвуд, Джоэли Ричардсон, Роберт Патрик, Риз Уэйкфилд, Дайо Окенайи, Эмма Ригби, Анна Энгер, Фаббианн Терез...
Описание: Он — далеко не ангел, высокий дерзкий парень, помешанный на тачках. Она — примерная ученица, белокурая красотка из богатой семьи. Их любовь под запретом, а потому вдвойне желанна. Страсть сжигает их дотла и бросает в бездну.-Автор рипа: _Flash- -Качество видео: BDRip | Blu-ray 1080p_HDClub |
Формат видео: AVI
Видео: 720x304, 23.976 fps, XviD build 73 ~1498 kbps avg, 0.285 bit/pixel
Аудио: 48 kHz, Dolby AC3, 6 ch, 448kbps-

Дополнительно о фильме:

Производство, студия дубляжа, прокат:

MediaInfo

Общее
Уникальный идентификатор : 192356338762660252918722249583167680398 (0x90B67BB8574B0270901E384ADDFA2F8E)
Полное имя : C:\Users\1\Desktop\Endless_Love_2014_BDRip.By_Flash.avi
Формат : avi
Версия формата : Audio Video Interleave
Размер файла : 1,45 Гбайт
Продолжительность : 1 ч. 44 м.
Общий поток : 1985 Кбит/сек
Видео
Идентификатор : 1
Формат : MPEG-4 Visual
Профиль формата : Advanced Simple@L5
Параметр BVOP формата : 1
Параметр QPel формата : Нет
Параметр GMC формата : Без точки перехода
Параметр матрицы формата : Выборочная
Идентификатор кодека : XVID
Идентификатор кодека/Подсказка : XviD
Продолжительность : 1 ч. 44 м.
Битрейт : 1498 Кбит/сек
Ширина : 720 пикселей
Высота : 304 пикселя
Соотношение сторон : 2,35:1
Режим частоты кадров : Постоянный
Частота кадров : 23,976 кадра/сек
Цветовое пространство : YUV
Субдискретизация насыщенности : 4:2:0
Битовая глубина : 8 бит
Тип развёртки : Прогрессивная
Метод сжатия : С потерями
Бит/(Пиксели*Кадры) : 0.285
Размер потока : 1,09 Гбайт (75%)
Библиотека кодирования : XviD 73
Аудио
Идентификатор : 2
Формат : AC-3
Формат/Информация : Audio Coding 3
Расширение режима : CM (complete main)
Параметр Endianness формата : Big
Идентификатор кодека : A_AC3
Продолжительность : 1 ч. 44 м.
Вид битрейта : Постоянный
Битрейт : 448 Кбит/сек
Каналы : 6 каналов
Расположение каналов : Front: L C R, Side: L R, LFE
Частота : 48,0 КГц
Битовая глубина : 16 бит
Метод сжатия : С потерями
Размер потока : 335 Мбайт (23%)

Скриншот c названием фильма

Скриншоты

-31.05.2014. Торрент перезалит, Замена видеоряда и Звука. HDRip на BDRip & iTunes на Лицензию
 
Кто просматривает тему:

Форум Тема Автор Размер
Сhanson (Шансон) Анатолий Могилевский - "Лучшие песни" - 1995, FLAC (image+.cue), lossless sergej644 370 MB
Discovery Discovery: Анатомия секса / Discovery: Anatomy Of Sex (Джонатан Группер / Jonathan Grupper) [2005, США, документальный, познавательный, физиология, психология, DVDRip] DVO reversefile 700 MB
Отечественные мультфильмы SOS (Анатолий Солин) [1973, мультфильм для взрослых, рисованный, DVDRip] TorrentFilm 100 MB
Разная литература Анатолий Букреев, Г. Вестон ДеУолт - Эверест. Смертельное восхождение (2015) FB2 достали все 10 MB
Фантастика, фэнтези Анатолий Дроздов, Андрей Муравьев | Непрощенные (2015) [FB2] достали все 1 MB
Фантастика и фэнтези Анатолий Половинкин – Опасный груз или А-44 (2016) MP3 Swager 387 MB
Научная и техническая литература Анатолий Терещенко - Сборник произведений (14 книг) [2004-2016, Военная история, Cпецслужбы, FB2] обновлено 08.02.2016 Garik014 28 MB
Праздничные концерты Анатомия Года на НТВ (31.12.2014) [2014 г., Pop, DVB] sergej644 8 GB
Показать сообщения:    

Текущее время: Сегодня 11:55

Часовой пояс: GMT



Вы не можете начинать темы
Вы не можете отвечать на сообщения
Вы не можете редактировать свои сообщения
Вы не можете удалять свои сообщения
Вы не можете голосовать в опросах
Вы не можете прикреплять файлы к сообщениям
Вы не можете скачивать файлы