Анатомия Года на НТВ (31.12.2014) [2014 г., Pop, DVB]

 
Автор Сообщение

sergej644 ®

Пол:

Стаж: 4 года 11 месяцев

Сообщений: 6035

Откуда: Soviet Union



Награды: Нет

Торрент-статистика

Создавать темы 04-Янв-2015 10:10

[Цитировать]

Анатомия Года на НТВ (31.12.2014)
Страна: Россия
Жанр: Pop
Продолжительность: 03:26:02
Год выпуска: 2014 г.
Описание: Новогоднее информационно-развлекательное шоу «Анатомия года» выйдет в эфир 31 декабря и подведет итоги уходящего года. События, люди, песни, шутки – все самое интересное и позитивное, чем запомнится 2014 год. Это будет не просто новогодний огонек. Песни, репортажи, гости – все соединится в одной программе в красочной интерактивной студии. Это будет квинтэссенция года! Репортеры программы напомнят о самых ярких моментах сочинской Олимпиады, свяжутся с помощью телемоста с космонавткой Серовой — первой за 20 лет российской женщиной на орбитальной станции, покажут самые эмоциональные эпизоды возвращения Крыма, порадуются за нашу соотечественницу, которая завоевала титул «Мисс Америка», и еще раз удивятся самым громким свадьбам года. В студии «Анатомии года» прозвучат на бис главные хиты прошедших 12 месяцев от Таисии Повалий, группы «Виа ГРА», Насти и Потапа, Сергея Шнурова и группы «Ленинград», А-Студио и многих других.
Треклист:
Требуется помощь!

Рип чистый. Без посторонних надписей. Выкладывается как есть.
Качество: DVB
Формат: MPG
Видео кодек: MPEG2
Аудио кодек: MP2
Видео: 720x576 @ 1024x576 (16х9) 25.000 fps ~ 5 233 Kbps, 0.363 bit/pixel
Аудио: MPEG Audio 48000Hz stereo 192 Кбит/сек

Скриншоты


MI

General
Complete name                            : E:\Анатомия Года на НТВ (31.12.2014) (2014, Pop, DVB) (MYDIMKA).mpg
Format                                   : MPEG-PS
File size                                : 8.00 GiB
Duration                                 : 3h 26mn
Overall bit rate mode                    : Variable
Overall bit rate                         : 5 561 Kbps
Writing library                          : (dvd5: Dec  5 2013)
Video
ID                                       : 224 (0xE0)
Format                                   : MPEG Video
Format version                           : Version 2
Format profile                           : Main@Main
Format settings, BVOP                    : Yes
Format settings, Matrix                  : Custom
Format settings, GOP                     : Variable
Duration                                 : 3h 26mn
Bit rate mode                            : Variable
Bit rate                                 : 5 258 Kbps
Maximum bit rate                         : 15.0 Mbps
Width                                    : 720 pixels
Height                                   : 576 pixels
Display aspect ratio                     : 16:9
Frame rate                               : 25.000 fps
Standard                                 : PAL
Color space                              : YUV
Chroma subsampling                       : 4:2:0
Bit depth                                : 8 bits
Scan type                                : Interlaced
Scan order                               : Top Field First
Compression mode                         : Lossy
Bits/(Pixel*Frame)                       : 0.507
Time code of first frame                 : 00:00:00:00
Time code source                         : Group of pictures header
Stream size                              : 7.57 GiB (95%)
Source encoded stream size               : (dvd5: Dec  5 2013)
Writing library                          : (dvd5: Dec  5 2013)
Audio
ID                                       : 192 (0xC0)
Format                                   : MPEG Audio
Format version                           : Version 1
Format profile                           : Layer 2
Duration                                 : 3h 26mn
Bit rate mode                            : Constant
Bit rate                                 : 192 Kbps
Channel(s)                               : 2 channels
Sampling rate                            : 48.0 KHz
Compression mode                         : Lossy
Stream size                              : 283 MiB (3%)
[Профиль] [ЛС]
Кто просматривает тему:

Форум Тема Автор Размер
Сhanson (Шансон) Анатолий Могилевский - "Лучшие песни" - 1995, FLAC (image+.cue), lossless sergej644 370 MB
Discovery Discovery: Анатомия секса / Discovery: Anatomy Of Sex (Джонатан Группер / Jonathan Grupper) [2005, США, документальный, познавательный, физиология, психология, DVDRip] DVO reversefile 700 MB
Отечественные мультфильмы SOS (Анатолий Солин) [1973, мультфильм для взрослых, рисованный, DVDRip] TorrentFilm 100 MB
Разная литература Анатолий Букреев, Г. Вестон ДеУолт - Эверест. Смертельное восхождение (2015) FB2 достали все 10 MB
Фантастика, фэнтези Анатолий Дроздов, Андрей Муравьев | Непрощенные (2015) [FB2] достали все 1 MB
Фантастика и фэнтези Анатолий Половинкин – Опасный груз или А-44 (2016) MP3 Swager 387 MB
Научная и техническая литература Анатолий Терещенко - Сборник произведений (14 книг) [2004-2016, Военная история, Cпецслужбы, FB2] обновлено 08.02.2016 Garik014 28 MB
Фильмы 2015 года Анатомия зла / Anatomia zla (2015) DVDRip | L1 Russian Mafia 1.18 GB
Показать сообщения:    

Текущее время: Сегодня 04:59

Часовой пояс: GMT



Вы не можете начинать темы
Вы не можете отвечать на сообщения
Вы не можете редактировать свои сообщения
Вы не можете удалять свои сообщения
Вы не можете голосовать в опросах
Вы не можете прикреплять файлы к сообщениям
Вы не можете скачивать файлы