(Шансон) Анатолий Могилевский - "Лучшие песни" - 1995, FLAC (image+.cue), lossless

 
Автор Сообщение

sergej644 ®

Пол:

Стаж: 4 года 11 месяцев

Сообщений: 6045

Откуда: Soviet Union



Награды: Нет

Торрент-статистика

Создавать темы 31-Май-2015 13:10

[Цитировать]

Анатолий Могилевский "Лучшие песни"
Жанр: Шансон
Страна-производитель диска: Россия
Год издания диска: 1995
Издатель (лейбл): Зеко Рекордс
Номер по каталогу: ЗД-088
Страна: Россия
Аудиокодек: FLAC (*.flac)
Тип рипа: image+.cue
Битрейт аудио: lossless
Продолжительность: 58:34
Источник (релизер): ikatsuro.EW8A
Наличие сканов в содержимом раздачи: да
Треклист:
01. У нас в Одессе это не едят
02. На мне был новенький мундирчик
03. Женушка-жена
04. Романс
05. Бабушка
06. Извозчик
07. Одесса-Мама
08. Гудбай,Россия
09. Все теперь против нас
10. Рыжая
11. Америка-Россия
12. Прохоря
13. Здравствуй,чужая милая
14. Вы уезжаете
15. Я Вас люблю мадам
16. Цыганка

Лог создания рипа

Exact Audio Copy V1.0 beta 3 from 29. August 2011
Отчёт EAC об извлечении, выполненном 22. ноября 2011, 1:02
Анатолий Могилевский / Лучшие песни
Дисковод: PIONEER DVD-RW DVR-118L Adapter: 0 ID: 0
Режим чтения : ДостоверностьИспользование точного потока : ДаОтключение кэша аудио : ДаИспользование указателей C2 : Нет
Коррекция смещения при чтении : 6Способность читать области Lead-in и Lead-out : НетЗаполнение пропущенных сэмплов тишиной : ДаУдаление блоков с тишиной в начале и конце : НетПри вычислениях CRC использовались нулевые сэмплы : ДаИнтерфейс : Встроенный Win32-интерфейс для Win NT/2000
Выходной формат : Пользовательский кодировщикВыбранный битрейт : 768 kBit/sКачество : ВысокийДобавление ID3-тега : НетУтилита сжатия : C:\Program Files\Exact Audio Copy\FLAC\FLAC.EXEДополнительные параметры : -6 -V -T "ARTIST=%artist%" -T "TITLE=%title%" -T "ALBUM=%albumtitle%" -T "DATE=%year%" -T "TRACKNUMBER=%tracknr%" -T "GENRE=%genre%" -T "COMMENT=%comment%" -T "BAND=%albuminterpret%" -T "COMPOSER=%composer%" %haslyrics%--tag-from-file=LYRICS="%lyricsfile%"%haslyrics% -T "DISCNUMBER=%cdnumber%" -T "TOTALDISCS=%totalcds%" -T "TOTALTRACKS=%numtracks%" %hascover%--picture="%coverfile%"%hascover% %source% -o %dest%
TOC извлечённого CD
Трек | Старт | Длительность | Начальный сектор | Конечный сектор --------------------------------------------------------------------- 1 | 0:00.33 | 2:46.02 | 33 | 12484 2 | 2:46.35 | 3:26.70 | 12485 | 28004 3 | 6:13.30 | 4:07.45 | 28005 | 46574 4 | 10:21.00 | 4:39.25 | 46575 | 67524 5 | 15:00.25 | 4:37.03 | 67525 | 88302 6 | 19:37.28 | 4:58.55 | 88303 | 110707 7 | 24:36.08 | 3:01.02 | 110708 | 124284 8 | 27:37.10 | 2:15.10 | 124285 | 134419 9 | 29:52.20 | 4:04.65 | 134420 | 152784 10 | 33:57.10 | 2:27.45 | 152785 | 163854 11 | 36:24.55 | 3:36.38 | 163855 | 180092 12 | 40:01.18 | 3:21.62 | 180093 | 195229 13 | 43:23.05 | 4:12.48 | 195230 | 214177 14 | 47:35.53 | 3:36.20 | 214178 | 230397 15 | 51:11.73 | 3:14.10 | 230398 | 244957 16 | 54:26.08 | 4:09.17 | 244958 | 263649
Характеристики диапазона извлечения и сообщения об ошибках
Выбранный диапазон
Имя файла I:\Раздачи 3\Анатолий Могилевский_Лучшие песни_ 1995 г._\Анатолий Могилевский - Лучшие песни.wav
Пиковый уровень 99.6 % Скорость извлечения 1.4 X Качество диапазона 100.0 % CRC теста 84584C86 CRC копии 84584C86 Копирование... OK
Ошибок не произошло
AccurateRip: сводка
Трек 1 отсутствует в базе данныхТрек 2 отсутствует в базе данныхТрек 3 отсутствует в базе данныхТрек 4 отсутствует в базе данныхТрек 5 отсутствует в базе данныхТрек 6 отсутствует в базе данныхТрек 7 отсутствует в базе данныхТрек 8 отсутствует в базе данныхТрек 9 отсутствует в базе данныхТрек 10 отсутствует в базе данныхТрек 11 отсутствует в базе данныхТрек 12 отсутствует в базе данныхТрек 13 отсутствует в базе данныхТрек 14 отсутствует в базе данныхТрек 15 отсутствует в базе данныхТрек 16 отсутствует в базе данных
Ни одного трека нет в базе AccurateRip
Конец отчёта

Содержание индексной карты (.CUE)

REM GENRE ChansonREM DATE 1995REM DISCID F10DBB10REM COMMENT "ExactAudioCopy v1.0b3"PERFORMER "Анатолий Могилевский"TITLE "Лучшие песни"FILE "Анатолий Могилевский - Лучшие песни.flac" WAVE TRACK 01 AUDIO TITLE "У нас в Одессе это не едят" PERFORMER "Анатолий Могилевский" INDEX 00 00:00:00 INDEX 01 00:00:33 TRACK 02 AUDIO TITLE "На мне был новенький мундирчик" PERFORMER "Анатолий Могилевский" INDEX 00 02:46:33 INDEX 01 02:46:35 TRACK 03 AUDIO TITLE "Женушка-жена" PERFORMER "Анатолий Могилевский" INDEX 00 06:13:28 INDEX 01 06:13:30 TRACK 04 AUDIO TITLE "Романс" PERFORMER "Анатолий Могилевский" INDEX 00 10:20:70 INDEX 01 10:21:00 TRACK 05 AUDIO TITLE "Бабушка" PERFORMER "Анатолий Могилевский" INDEX 00 15:00:20 INDEX 01 15:00:25 TRACK 06 AUDIO TITLE "Извозчик" PERFORMER "Анатолий Могилевский" INDEX 00 19:37:23 INDEX 01 19:37:28 TRACK 07 AUDIO TITLE "Одесса-Мама" PERFORMER "Анатолий Могилевский" INDEX 00 24:36:03 INDEX 01 24:36:08 TRACK 08 AUDIO TITLE "Гудбай,Россия" PERFORMER "Анатолий Могилевский" INDEX 00 27:37:08 INDEX 01 27:37:10 TRACK 09 AUDIO TITLE "Все теперь против нас" PERFORMER "Анатолий Могилевский" INDEX 00 29:52:18 INDEX 01 29:52:20 TRACK 10 AUDIO TITLE "Рыжая" PERFORMER "Анатолий Могилевский" INDEX 00 33:57:08 INDEX 01 33:57:10 TRACK 11 AUDIO TITLE "Америка-Россия" PERFORMER "Анатолий Могилевский" INDEX 00 36:24:53 INDEX 01 36:24:55 TRACK 12 AUDIO TITLE "Прохоря" PERFORMER "Анатолий Могилевский" INDEX 00 40:01:13 INDEX 01 40:01:18 TRACK 13 AUDIO TITLE "Здравствуй,чужая милая" PERFORMER "Анатолий Могилевский" INDEX 00 43:23:03 INDEX 01 43:23:05 TRACK 14 AUDIO TITLE "Вы уезжаете" PERFORMER "Анатолий Могилевский" INDEX 00 47:35:50 INDEX 01 47:35:53 TRACK 15 AUDIO TITLE "Я Вас люблю мадам" PERFORMER "Анатолий Могилевский" INDEX 00 51:11:68 INDEX 01 51:11:73 TRACK 16 AUDIO TITLE "Цыганка" PERFORMER "Анатолий Могилевский" INDEX 00 54:26:05 INDEX 01 54:26:08

Лог проверки качества

AUDIOCHECKER v2.0 beta (build 457) - by Dester - opdester@freemail.hu~~~~~~~~~~~~~~~~~~~~~~~~~~~~~~~~~~
Начато: вторник, 22. 11. 2011. - 20:12.35Найдено файлов: 1
1 -===- I:\Раздачи 3\Анатолий Могилевский_Лучшие песни_ 1995 г._\Анатолий Могилевский - Лучшие песни.flac Извлечение успешно выполнено Заключение: этот трек - CDDA с вероятностью 100% Временный файл удалён.
Завершено: вторник, 22. 11. 2011. - 20:25.33 (Время операции: 0:12.58)
[Профиль] [ЛС]

Создавать темы 13-Авг-2015 11:04 (спустя 2 месяца 12 дней)

Топик был перенесен из форума Шансон и авторская песня в форум Сhanson
sergej644
 
Кто просматривает тему:

Показать сообщения:    

Текущее время: Сегодня 16:26

Часовой пояс: GMT



Вы не можете начинать темы
Вы не можете отвечать на сообщения
Вы не можете редактировать свои сообщения
Вы не можете удалять свои сообщения
Вы не можете голосовать в опросах
Вы не можете прикреплять файлы к сообщениям
Вы не можете скачивать файлы