Анархисты / Les anarchistes (2015) WEB-DLRip-AVC | P

 
Автор Сообщение

достали все ®

Пол:

Стаж: 1 год 8 месяцев

Сообщений: 6571



Награды: 12 (Подробнее)

Mega Seeder 4 (Количество: 1) Mega Seeder 5 (Количество: 1) Mega Releaser 1 (Количество: 1)
Торрент-статистика

Создавать темы 26-Июл-2016 16:24

[Цитировать]

Информация о фильме
Название: Анархисты
Оригинальное название: Les anarchistes
Год выхода: 2015
Жанр: драма
Режиссер: Эли Важеман
В ролях: Тахар Рахим, Адель Экзаркопулос, Сванн Арло, Гийом Гуи, Карим Леклу, Сара Лепикар, Седрик Кан, Эмили де Прессак, Аурелия Пурье, Одри Бонне
О фильме: Париж, 1899 год. Выросший в нищете сирота, а ныне командир отделения жандармерии Жан Альбертини должен проникнуть в группу анархистов. Для него это реальная возможность подняться по карьерной лестнице. Но чем дальше, тем больше у него возникает сомнений. По мере того как Жан составляет полицеские рапорты на преступную группировку для своего начальника Гаспара, он сам начинает все больше симпатизировать им.

Страна: Франция / 24 Mai Productions, A Plus Image 5, Canal+ [fr]
Продолжительность: 01:36:27
Перевод: Профессиональный многоголосый Официальный звук
Файл
Качество: WEB-DLRip-AVC
Формат: MKV
Видео: AVC, 2500 Kb/s, 1024x456
Звук: Русский / французский: AC3, 192 Kb/s, (2 ch)
Субтитры: нет

MediaInfo:

Format : Matroska
Format version : Version 4 / Version 2
File size : 1.95 GiB
Duration : 1h 36mn
Overall bit rate : 2 887 Kbps
Movie name : Rip by basma4i
Writing application : XviD4PSP 7.0.280 DAILY
Writing library : Lavf57.25.100
ENCODING_INFO : MATROSKA,WEBM > MKV / H264 > X264 VBR-2P 2500kbps Произвольный / AC3 > AC3 CBR 192kbps / AC3 > AC3 CBR 192kbps
MIMETYPE : image/png
FILENAME : cover.png
DURATION : 00:00:00.000000000
Attachements : cover.png
Video
ID : 1
Format : AVC
Format/Info : Advanced Video Codec
Format profile : High 4:4:4 Predictive@L4.1
Format settings, CABAC : No
Format settings, ReFrames : 13 frames
Codec ID : V_MPEG4/ISO/AVC
Bit rate : 2 500 Kbps
Width : 1 024 pixels
Height : 456 pixels
Display aspect ratio : 2.25:1
Frame rate mode : Variable
Original frame rate : 25.000 fps
Color space : YUV
Chroma subsampling : 4:4:4
Bit depth : 8 bits
Scan type : Progressive
Bits/(Pixel*Frame) : 0.214
Writing library : x264 core 148 r2705M 3f5ed56
Encoding settings : cabac=0 / ref=14 / deblock=1:-3:-3 / analyse=0x3:0x133 / me=umh / subme=9 / psy=1 / psy_rd=1.00:0.20 / mixed_ref=1 / me_range=32 / chroma_me=1 / trellis=0 / 8x8dct=1 / cqm=0 / deadzone=21,11 / fast_pskip=1 / chroma_qp_offset=2 / threads=12 / lookahead_threads=3 / sliced_threads=0 / nr=0 / decimate=0 / interlaced=0 / bluray_compat=0 / constrained_intra=0 / bframes=11 / b_pyramid=1 / b_adapt=2 / b_bias=10 / direct=3 / weightb=1 / open_gop=0 / weightp=2 / keyint=250 / keyint_min=25 / scenecut=40 / intra_refresh=0 / rc_lookahead=40 / rc=2pass / mbtree=1 / bitrate=2500 / ratetol=1.0 / qcomp=0.60 / qpmin=0 / qpmax=69 / qpstep=4 / cplxblur=20.0 / qblur=0.5 / ip_ratio=1.40 / aq=1:1.00
Language : English
Default : Yes
Forced : No
ENCODING_INFO : x264 - core 142 - H.264/MPEG-4 AVC codec - Copyleft 2003-2014 - http://www.videolan.org/x264.html - options: cabac=1 ref=3 deblock=1:0:0 analyse=0x3:0x113 me=hex subme=7 psy=1 psy_rd=1.00:0.00 mixed_ref=1 me_range=16 chroma_me=1 trellis=1 8x8dct=1 cqm=0 deadzone=21,11 fast_pskip=1 chroma_qp_offset=-2 threads=36 lookahead_threads=4 sliced_threads=0 nr=0 decimate=1 interlaced=0 bluray_compat=0 constrained_intra=0 bframes=6 b_pyramid=2 b_adapt=1 b_bias=0 direct=1 weightb=1 open_gop=0 weightp=2 keyint=200 keyint_min=20 scenecut=0 intra_refresh=0 rc_lookahead=40 rc=2pass mbtree=1 bitrate=2569 ratetol=1.0 qcomp=0.60 qpmin=0 qpmax=69 qpstep=4 cplxblur=20.0 qblur=0.5 vbv_maxrate=3854 vbv_bufsize=10279 nal_hrd=none filler=0 ip_ratio=1.40 aq=1:1.00
DURATION : 01:36:26.885000000
Audio #1
ID : 2
Format : AC-3
Format/Info : Audio Coding 3
Mode extension : CM (complete main)
Format settings, Endianness : Big
Codec ID : A_AC3
Duration : 1h 36mn
Bit rate mode : Constant
Bit rate : 192 Kbps
Channel(s) : 2 channels
Channel positions : Front: L R
Sampling rate : 48.0 KHz
Bit depth : 32 bits
Compression mode : Lossy
Stream size : 132 MiB (7%)
Language : Russian
Default : Yes
Forced : No
DURATION : 01:36:27.040000000
Audio #2
ID : 3
Format : AC-3
Format/Info : Audio Coding 3
Mode extension : CM (complete main)
Format settings, Endianness : Big
Codec ID : A_AC3
Duration : 1h 36mn
Bit rate mode : Constant
Bit rate : 192 Kbps
Channel(s) : 2 channels
Channel positions : Front: L R
Sampling rate : 48.0 KHz
Bit depth : 32 bits
Compression mode : Lossy
Stream size : 132 MiB (7%)
Default : No
Forced : No
DURATION : 01:36:27.840000000

Скриншоты

[Профиль] [ЛС]
Показать сообщения:    

Текущее время: Сегодня 22:32

Часовой пояс: GMT



Вы не можете начинать темы
Вы не можете отвечать на сообщения
Вы не можете редактировать свои сообщения
Вы не можете удалять свои сообщения
Вы не можете голосовать в опросах
Вы не можете прикреплять файлы к сообщениям
Вы не можете скачивать файлы