Анархисты / Les anarchistes (2015) WEB-DLRip | P

 
Автор Сообщение

достали все ®

Пол:

Стаж: 1 год 8 месяцев

Сообщений: 6570



Награды: 12 (Подробнее)

Top Releaser 2 (Количество: 1) Mega Seeder 5 (Количество: 1) Mega Releaser 3 (Количество: 1)
Торрент-статистика

Создавать темы 17-Мар-2016 10:42

[Цитировать]

Информация о фильме
Название: Анархисты
Оригинальное название: Les anarchistes
Год выхода: 2015
Жанр: Драма
Режиссер: Эли Важеман
В ролях: Тахар Рахим, Адель Экзаркопулос, Сванн Арло, Гийом Гуи, Карим Леклу, Сара Лепикар, Седрик Кан, Эмили де Прессак, Аурелия Пурье, Одри Бонне
О фильме:
Париж, 1899 год. Выросший в нищете сирота, а ныне командир отделения жандармерии Жан Альбертини должен проникнуть в группу анархистов. Для него это реальная возможность подняться по карьерной лестнице. Но чем дальше, тем больше у него возникает сомнений. По мере того как Жан составляет полицеские рапорты на преступную группировку для своего начальника Гаспара, он сам начинает все больше симпатизировать им.

Страна: Франция
Студия: 24 Mai Productions, A Plus Image 5, Canal+ [fr]
Продолжительность: 01:41:12
Перевод: Профессиональный многоголосый [Официальный звук]
Файл
Кодек: AVI (XviD)
Качество: WEB-DLRip
Видео: 720x304 (2.35:1), 24.000 fps, 1 776 Kbps (0.338 bit/pixel)
Звук: AC-3, 48.0 KHz, 2 ch, 256 Kbps, CBR

Скриншоты

MediaInfo:

General
Complete name : D:фильмыAnarhisty 2015 WEB-DLRip.avi
Format : AVI
Format/Info : Audio Video Interleave
File size : 1.44 GiB
Duration : 1h 41mn
Overall bit rate : 2 042 Kbps
Writing application : VirtualDubMod 1.5.10.2 (build 2540/release)
Writing library : VirtualDubMod build 2540/release
Video
ID : 0
Format : MPEG-4 Visual
Format profile : Advanced Simple@L5
Format settings, BVOP : Yes
Format settings, QPel : No
Format settings, GMC : No warppoints
Format settings, Matrix : Default (MPEG)
Codec ID : XVID
Codec ID/Hint : XviD
Duration : 1h 41mn
Bit rate : 1 776 Kbps
Width : 720 pixels
Height : 304 pixels
Display aspect ratio : 2.35:1
Frame rate : 24.000 fps
Color space : YUV
Chroma subsampling : 4:2:0
Bit depth : 8 bits
Scan type : Progressive
Compression mode : Lossy
Bits/(Pixel*Frame) : 0.338
Stream size : 1.26 GiB (87%)
Writing library : XviD 1.2.1 (UTC 2008-12-04)
Audio
ID : 1
Format : AC-3
Format/Info : Audio Coding 3
Mode extension : CM (complete main)
Format settings, Endianness : Big
Codec ID : 2000
Duration : 1h 41mn
Bit rate mode : Constant
Bit rate : 256 Kbps
Channel(s) : 2 channels
Channel positions : Front: L R
Sampling rate : 48.0 KHz
Bit depth : 16 bits
Compression mode : Lossy
Stream size : 185 MiB (13%)
Alignment : Split accross interleaves
Interleave, duration : 42 ms (1.00 video frame)
Interleave, preload duration : 500 ms
Внимание, присутствуют вставки голосовой и текстовой рекламы.
[Профиль] [ЛС]
Показать сообщения:    

Текущее время: Сегодня 08:58

Часовой пояс: GMT



Вы не можете начинать темы
Вы не можете отвечать на сообщения
Вы не можете редактировать свои сообщения
Вы не можете удалять свои сообщения
Вы не можете голосовать в опросах
Вы не можете прикреплять файлы к сообщениям
Вы не можете скачивать файлы