Анаклет: Секретный агент / Anacleto: Agente secreto (2015) BDRip 720p | L2

 
Автор Сообщение

достали все ®

Пол:

Стаж: 1 год 8 месяцев

Сообщений: 6545



Награды: 12 (Подробнее)

Mega Releaser 3 (Количество: 1) Mega Releaser 2 (Количество: 1) Mega Releaser 1 (Количество: 1)
Торрент-статистика

Создавать темы 23-Янв-2016 15:14

[Цитировать]

Информация о фильме
Название: Анаклет: Секретный агент
Оригинальное название: Anacleto: Agente secreto
Год выхода: 2015
Жанр: боевик, комедия
Режиссер: Хавьер Руис Кальдера
В ролях: Иманоль Ариас, Ким Гутьеррес, Росси де Пальма, Карлос Аресес, Александра Хименес, Сильвия Абриль, Хосе Корбачо, Эмилио Гутьеррес Каба, Берто Ромеро, Эдуардо Гомес
О фильме: У тридцатилетнего сотрудника службы безопасности Адольфо началась черная полоса в жизни. Его бросила любовь всей его жизни, а наемные убийцы во главе с только что бежавшим из тюрьмы Баскесом начали на него охоту. К тому же, он узнает, что его отец ведет двойную жизнь. Простой фермер оказывается секретным агентом, который 30 лет назад посадил Баскеса в тюрьму. Адольфо предстоит выйти из зоны комфорта и вместе со своим отцом, которого он совсем не понимает, избежать мести Баскеса, а между перестрелками и погонями попытаться вернуть свою возлюбленную.

Выпущено: Испания / Agente Secreto 2015, Telefonica Studios, Zeta Audiovisual
Продолжительность: 01:33:14
Озвучивание: Любительское (двухголосное) [Parovoz Production]
Примечание: Релиз без рекламы.
Файл
Формат: MKV
Качество: BDRip 720p
Видео: MPEG-4 AVC, 5191 kb/s, 1280x536
Аудио: Russian: AC3, 192 kb/s (2 ch) / Spanish: DTS, 1510 kb/s (6 ch)
Субтитры: English

MI

Format : Matroska
Format version : Version 2
File size : 4.49 GiB
Duration : 1h 33mn
Overall bit rate : 6 891 Kbps
Encoded date : UTC 2016-01-23 13:47:10
Writing application : mkvmerge v7.8.0 ('River Man') 32bit built on Apr 3 2015 12:11:22
Writing library : libebml v1.3.1 + libmatroska v1.4.2
Video
ID : 1
Format : AVC
Format/Info : Advanced Video Codec
Format profile : High@L4.1
Format settings, CABAC : Yes
Format settings, ReFrames : 5 frames
Codec ID : V_MPEG4/ISO/AVC
Duration : 1h 33mn
Bit rate : 5 191 Kbps
Width : 1 280 pixels
Height : 536 pixels
Display aspect ratio : 2.40:1
Frame rate mode : Constant
Frame rate : 23.976 fps
Color space : YUV
Chroma subsampling : 4:2:0
Bit depth : 8 bits
Scan type : Progressive
Bits/(Pixel*Frame) : 0.316
Stream size : 3.29 GiB (73%)
Writing library : x264 core 148 r2638 7599210
Encoding settings : cabac=1 / ref=5 / deblock=1:0:0 / analyse=0x3:0x133 / me=umh / subme=7 / psy=1 / psy_rd=1.00:0.00 / mixed_ref=1 / me_range=16 / chroma_me=1 / trellis=1 / 8x8dct=1 / cqm=0 / deadzone=21,11 / fast_pskip=0 / chroma_qp_offset=-2 / threads=12 / lookahead_threads=2 / sliced_threads=0 / nr=0 / decimate=1 / interlaced=0 / bluray_compat=0 / constrained_intra=0 / bframes=3 / b_pyramid=2 / b_adapt=2 / b_bias=0 / direct=3 / weightb=1 / open_gop=0 / weightp=2 / keyint=250 / keyint_min=23 / scenecut=40 / intra_refresh=0 / rc_lookahead=50 / rc=2pass / mbtree=1 / bitrate=5191 / ratetol=1.0 / qcomp=0.60 / qpmin=0 / qpmax=69 / qpstep=4 / cplxblur=20.0 / qblur=0.5 / ip_ratio=1.40 / aq=1:1.00
Language : Spanish
Default : Yes
Forced : No
Audio #1
ID : 2
Format : AC-3
Format/Info : Audio Coding 3
Mode extension : CM (complete main)
Format settings, Endianness : Big
Codec ID : A_AC3
Duration : 1h 33mn
Bit rate mode : Constant
Bit rate : 192 Kbps
Channel(s) : 2 channels
Channel positions : Front: L R
Sampling rate : 48.0 KHz
Bit depth : 16 bits
Compression mode : Lossy
Stream size : 128 MiB (3%)
Language : Russian
Default : Yes
Forced : No
Audio #2
ID : 3
Format : DTS
Format/Info : Digital Theater Systems
Mode : 16
Format settings, Endianness : Big
Codec ID : A_DTS
Duration : 1h 33mn
Bit rate mode : Constant
Bit rate : 1 510 Kbps
Channel(s) : 6 channels
Channel positions : Front: L C R, Side: L R, LFE
Sampling rate : 48.0 KHz
Bit depth : 24 bits
Compression mode : Lossy
Stream size : 1 007 MiB (22%)
Language : Spanish
Default : No
Forced : No
Text
ID : 4
Format : UTF-8
Codec ID : S_TEXT/UTF8
Codec ID/Info : UTF-8 Plain Text
Language : English
Default : No
Forced : No
Menu
00:00:00.000 : en:00:00:00.000
00:06:53.079 : en:00:06:53.079
00:14:01.257 : en:00:14:01.257
00:23:00.588 : en:00:23:00.588
00:29:37.150 : en:00:29:37.150
00:36:06.039 : en:00:36:06.039
00:44:21.325 : en:00:44:21.325
00:54:20.466 : en:00:54:20.466
01:05:03.274 : en:01:05:03.274
01:13:59.226 : en:01:13:59.226
01:24:40.117 : en:01:24:40.117
01:28:56.373 : en:01:28:56.373

Скриншоты




[Профиль] [ЛС]
Кто просматривает тему:

Форум Тема Автор Размер
Фильмы 2015 года Анаклет: Секретный агент / Anacleto: Agente secreto (2015) HDRip | L2 BOSS 1.45 GB
Показать сообщения:    

Текущее время: Сегодня 16:31

Часовой пояс: GMT



Вы не можете начинать темы
Вы не можете отвечать на сообщения
Вы не можете редактировать свои сообщения
Вы не можете удалять свои сообщения
Вы не можете голосовать в опросах
Вы не можете прикреплять файлы к сообщениям
Вы не можете скачивать файлы