Амфибия в 3Д / Amphibious 3D (Брайан Юзна / Brian Yuzna) [2010, ужасы, BDrip-AVC] Half OverUnder / Вертикальная анаморфная стереопара

 
Автор Сообщение

TorrentFilm ®

Пол:

Стаж: 2 года

Сообщений: 7741



Награды: Нет

Торрент-статистика

Создавать темы 02-Янв-2016 00:02

[Цитировать]

Амфибия 3Д/ Amphibious 3D Год выпуска: 2010
Страна: Нидерланды, Индонезия (Fu Works, Komodo Dragon, Komodo Films)
Жанр: ужасы
Продолжительность: 01:26:27
Перевод: Профессиональный (многоголосый закадровый) НТВ+
Русские субтитры: нет
Режиссер: Брайан Юзна / Brian Yuzna-В ролях:-Майкл Паре, Мохаммад Адитья, Бамбанг Б.С., Стивен Барай, Френсис Боске, Джинна Фассерт, Майкл С. Джехиан, Френсис Маджи, Тимо ОттеванrерОписание:Морской биолог Скайлар Шейн нанимает лодку капитана Джека Боумана, чтобы найти образцы доисторических форм возле северного побережья Суматры. Во время экспедиции, они сталкиваются с бандой контрабандистов, скрывающихся на рыболовецкой платформе посреди моря. Но контрабандисты не самое страшное, с чем придется столкнуться Скайлар — приближается жуткий шторм, а в темных глубинах вод проснулось древнее и могучее существо…

Техн. детали съёмки

Премьера: 12 октября 2010
Бюджет: $?
Кассовые сборы: $?
Релиз на DVD: 26 января 2012, «Монолит»

. .
Проверено на встроенном плейере ТВ LG LW 650S
--Качество: BDrip
Контейнер: MKV
Формат 3D: Anamorph OverUnder / Вертикальная анаморфная стереопара
Порядок ракурсов: левый ракурс первый
Видео кодек: x264
Аудио кодек: AC3-Видео: AVC / 23,976 fps / 1920х1080p / 9681 Kbps
Аудио 1: Русский / AC3 / 48 KHz /2.0 ch / 448 Kbps (MVO)
Аудио 2: Английский / AC3 / 48 KHz / 5.1 ch / 640 Kbps
Субтитры: нет

MediaInfo

Общее
Уникальный идентификатор : 244270143757656578630836737834573150737 (0xB7C4B7EB91F27F7F94C3822B8534BA11)
Полное имя : E:\3Д фильмы\Amphibious (3D )2010.BDRip.1080p.Half OU.x264.AC3 Rus(MVO).3D-RuGroup.(m@rik05).mkv
Формат : Matroska
Версия формата : Version 2
Размер файла : 6,64 Гбайт
Продолжительность : 1 ч. 26 м.
Общий поток : 11,0 Мбит/сек
Название фильма : Amphibious 3D (2012) 3D-RuGroup (m@rik05)
Дата кодирования : UTC 2013-01-26 09:03:34
Программа кодирования : mkvmerge v3.4.0 ('Rapunzel') сборка от May 15 2010 09:38:20
Библиотека кодирования : libebml v0.8.0 + libmatroska v0.9.0
Видео
Идентификатор : 1
Формат : AVC
Формат/Информация : Advanced Video Codec
Профиль формата : High@L4.1
Параметр CABAC формата : Да
Параметр ReFrames формата : 4 кадра
Идентификатор кодека : V_MPEG4/ISO/AVC
Продолжительность : 1 ч. 26 м.
Битрейт : 9681 Кбит/сек
Ширина : 1920 пикселей
Высота : 1080 пикселей
Соотношение сторон : 16:9
Режим частоты кадров : Постоянный
Частота кадров : 23,976 кадра/сек
Цветовое пространство : YUV
Субдискретизация насыщенности : 4:2:0
Битовая глубина : 8 бит
Тип развёртки : Прогрессивная
Бит/(Пиксели*Кадры) : 0.195
Размер потока : 5,85 Гбайт (88%)
Заголовок : BDrip 1080p by m@rik05
Библиотека кодирования : x264 core 116 r2074 2641b9e
Настройки программы : cabac=1 / ref=4 / deblock=1:-3:-3 / analyse=0x3:0x133 / me=umh / subme=9 / psy=1 / psy_rd=1.00:0.05 / mixed_ref=1 / me_range=16 / chroma_me=1 / trellis=2 / 8x8dct=1 / cqm=0 / deadzone=21,11 / fast_pskip=1 / chroma_qp_offset=-3 / threads=12 / sliced_threads=0 / nr=0 / decimate=1 / interlaced=0 / bluray_compat=0 / constrained_intra=0 / bframes=6 / b_pyramid=2 / b_adapt=2 / b_bias=0 / direct=3 / weightb=1 / open_gop=0 / weightp=2 / keyint=250 / keyint_min=23 / scenecut=40 / intra_refresh=0 / rc_lookahead=60 / rc=crf / mbtree=1 / crf=17.0 / qcomp=0.70 / qpmin=10 / qpmax=51 / qpstep=4 / vbv_maxrate=40000 / vbv_bufsize=30000 / crf_max=0.0 / nal_hrd=none / frame-packing=4 / ip_ratio=1.40 / aq=1:0.70
Язык : English
Default : Нет
Forced : Нет
Аудио #1
Идентификатор : 2
Формат : AC-3
Формат/Информация : Audio Coding 3
Профиль формата : Dolby Digital
Расширение режима : CM (complete main)
Параметр Endianness формата : Big
Идентификатор кодека : A_AC3
Продолжительность : 1 ч. 26 м.
Вид битрейта : Постоянный
Битрейт : 448 Кбит/сек
Каналы : 2 канала
Расположение каналов : Front: L R
Частота : 48,0 КГц
Битовая глубина : 16 бит
Метод сжатия : С потерями
Размер потока : 277 Мбайт (4%)
Заголовок : AC3 / 2.0 ch / 448 kbps / Закадровый многоголосый (MVO - R5)
Язык : Russian
Default : Да
Forced : Нет
Аудио #2
Идентификатор : 3
Формат : AC-3
Формат/Информация : Audio Coding 3
Расширение режима : CM (complete main)
Параметр Endianness формата : Big
Идентификатор кодека : A_AC3
Продолжительность : 1 ч. 26 м.
Вид битрейта : Постоянный
Битрейт : 640 Кбит/сек
Каналы : 6 каналов
Расположение каналов : Front: L C R, Side: L R, LFE
Частота : 48,0 КГц
Битовая глубина : 16 бит
Метод сжатия : С потерями
Размер потока : 396 Мбайт (6%)
Заголовок : AC3 / 5/1 ch / 640 kbps / original
Язык : English
Default : Нет
Forced : Нет
Меню
00:00:00.000 : en:00:00:00.000
00:06:03.613 : en:00:06:03.613
00:15:07.406 : en:00:15:07.406
00:18:01.664 : en:00:18:01.664
00:24:36.809 : en:00:24:36.809
00:32:02.129 : en:00:32:02.129
00:40:23.921 : en:00:40:23.921
00:45:42.323 : en:00:45:42.323
00:55:05.928 : en:00:55:05.928
00:59:50.587 : en:00:59:50.587
01:05:51.573 : en:01:05:51.573
01:10:06.411 : en:01:10:06.411
01:22:15.931 : en:01:22:15.931

Log x264

Скриншоты

[Профиль] [ЛС]
Кто просматривает тему:

Форум Тема Автор Размер
Научная и техническая литература Альфред Брем - Рептилии, рыбы и амфибии [2 тома] (2000) PDF достали все 66 MB
Зарубежные Амфибия в 3Д / Amphibious 3D (Брайан Юзна / Brian Yuzna) [2010, Нидерланды, Индонезия, ужасы, 3D Blu-ray Disc (custom), 1080p] BD3D TorrentFilm 22.26 GB
Зарубежные Амфибия в 3Д / Amphibious 3D (Брайан Юзна / Brian Yuzna) [2010, ужасы, HDTV] Half SideBySide / Горизонтальная анаморфная стереопара TorrentFilm 4.86 GB
Фильмы (HD DVD, Blu-ray и BDRemux) Человек-амфибия (1961) BDRemux 1080p AVC sergej644 20.43 GB
Фильмы (HD Rips | 720p, 1080p) Человек-амфибия (Владимир Чеботарев, Геннадий Казанский) [1961, СССР, Фантастика, мелодрама, драма, BDRip 1080p] Original Rus TorrentFilm 9.22 GB
Кино СССР Человек-амфибия (Владимир Чеботарев, Геннадий Казанский)[1961, фантастика, мелодрама, BDRip] sergej644 1.45 GB
Фильмы (HD DVD, Blu-ray и BDRemux) Человек-амфибия (Владимир Чеботарев, Геннадий Казанский)[1961,фантастика, фэнтези, мелодрама,BDRemux] sergej644 17.9 GB
Фильмы (DVD 5/9) Человек-амфибия (Геннадий Казанский, Владимир Чеботарев) [1961 г., Приключения, фантастика, Blu-ray>DVD9 (Custom)] TorrentFilm 6.92 GB
Показать сообщения:    

Текущее время: Сегодня 04:49

Часовой пояс: GMT



Вы не можете начинать темы
Вы не можете отвечать на сообщения
Вы не можете редактировать свои сообщения
Вы не можете удалять свои сообщения
Вы не можете голосовать в опросах
Вы не можете прикреплять файлы к сообщениям
Вы не можете скачивать файлы