Амфибия в 3Д / Amphibious 3D (Брайан Юзна / Brian Yuzna) [2010, ужасы, HDTV] Half SideBySide / Горизонтальная анаморфная стереопара

 
Автор Сообщение

TorrentFilm ®

Пол:

Стаж: 2 года

Сообщений: 7741



Награды: Нет

Торрент-статистика

Создавать темы 02-Янв-2016 00:01

[Цитировать]

Амфибия / Amphibious
Год выпуска: 2010
Страна: Нидерланды, Индонезия
Студия: Fu Works
Жанр: ужасы
Продолжительность: 01:23:01
Перевод: Профессиональный (многоголосый закадровый) НТВ+
Русские субтитры: нет
Режиссер на русском: Брайан Юзна
Режиссер на английском: Brian Yuzna
В ролях: Майкл Паре, Мохаммад Адитья, Бамбанг Б.С., Стивен Барай, Френсис Боске, Джинна Фассерт, Майкл С. Джехиан, Френсис Маджи, Тимо Оттеванrер
Описание: Морской биолог Скайлар Шейн нанимает лодку капитана Джека Боумана, чтобы найти образцы доисторических форм возле северного побережья Суматры. Во время экспедиции, они сталкиваются с бандой контрабандистов, скрывающихся на рыболовецкой платформе посреди моря. Но контрабандисты не самое страшное, с чем придется столкнуться Скайлар — приближается жуткий шторм, а в темных глубинах вод проснулось древнее и могучее существо…-- --Качество: HDTVrip
Контейнер: MKV
Формат 3D: Half SideBySide / Горизонтальная анаморфная стереопара
Порядок ракурсов: левый ракурс первый
Видео кодек: h.264
Аудио кодек: AC3
Видео: AVC / 1920х1080i / 25.000 fps / 7762 Kbps
Аудио: Русский / AC3 / 2 ch / 448 Kbps / 48 KHz--Проверено на встроенном плейере ТВ Samsung UE55 D6100-
-

MediaInfo

Общее
Уникальный идентификатор : 205639307570185016636355755103521720388 (0x9AB4B0A519F61A6786EA351A2BE1C844)
Полное имя : D:\Download\Amphibious 3D 2010 HDTVRip halfSbS 1080i (IgorekSh).mkv
Формат : Matroska
Версия формата : Version 2
Размер файла : 4,86 Гбайт
Продолжительность : 1 ч. 23 м.
Режим общего битрейта : Переменный
Общий поток : 8376 Кбит/сек
Дата кодирования : UTC 2012-11-02 09:54:19
Программа кодирования : mkvmerge v4.2.0 ('No Talking') сборка от Jul 28 2010 18:38:23
Библиотека кодирования : libebml v1.0.0 + libmatroska v1.0.0
Видео
Идентификатор : 1
Формат : AVC
Формат/Информация : Advanced Video Codec
Профиль формата : Main@L4.0
Параметр CABAC формата : Да
Параметр ReFrames формата : 3 кадра
Параметр GOP формата : M=4, N=32
Режим смешивания : Container profile=Unknown@0.0
Идентификатор кодека : V_MPEG4/ISO/AVC
Продолжительность : 1 ч. 23 м.
Вид битрейта : Переменный
Битрейт : 7762 Кбит/сек
Максимальный битрейт : 40,0 Мбит/сек
Ширина : 1920 пикселей
Высота : 1080 пикселей
Соотношение сторон : 16:9
Режим частоты кадров : Постоянный
Частота кадров : 25,000 кадров/сек
Стандарт вещания : Component
Цветовое пространство : YUV
Субдискретизация насыщенности : 4:2:0
Битовая глубина : 8 бит
Тип развёртки : Чересстрочная
Порядок развёртки : Верхнее поле первое
Бит/(Пиксели*Кадры) : 0.150
Размер потока : 4,50 Гбайт (93%)
Заголовок : IgorekSh
Язык : English
Default : Нет
Forced : Нет
Основные цвета : BT.709
Характеристики трансфера : BT.709
Коэффициенты матрицы : BT.709
Аудио
Идентификатор : 2
Формат : AC-3
Формат/Информация : Audio Coding 3
Расширение режима : CM (complete main)
Параметр Endianness формата : Big
Режим смешивания : Header stripping
Идентификатор кодека : A_AC3
Продолжительность : 1 ч. 23 м.
Вид битрейта : Постоянный
Битрейт : 448 Кбит/сек
Каналы : 2 канала
Расположение каналов : Front: L R
Частота : 48,0 КГц
Битовая глубина : 16 бит
Метод сжатия : С потерями
Задержка видео : -120 мс.
Размер потока : 266 Мбайт (5%)
Заголовок : MVO 2.0
Язык : Russian
Default : Да
Forced : Нет

Скриншоты

[Профиль] [ЛС]
Кто просматривает тему:

Форум Тема Автор Размер
Научная и техническая литература Альфред Брем - Рептилии, рыбы и амфибии [2 тома] (2000) PDF достали все 66 MB
Зарубежные Амфибия в 3Д / Amphibious 3D (Брайан Юзна / Brian Yuzna) [2010, Нидерланды, Индонезия, ужасы, 3D Blu-ray Disc (custom), 1080p] BD3D TorrentFilm 22.26 GB
Зарубежные Амфибия в 3Д / Amphibious 3D (Брайан Юзна / Brian Yuzna) [2010, ужасы, BDrip-AVC] Half OverUnder / Вертикальная анаморфная стереопара TorrentFilm 6.64 GB
Фильмы (HD DVD, Blu-ray и BDRemux) Человек-амфибия (1961) BDRemux 1080p AVC sergej644 20.43 GB
Фильмы (HD Rips | 720p, 1080p) Человек-амфибия (Владимир Чеботарев, Геннадий Казанский) [1961, СССР, Фантастика, мелодрама, драма, BDRip 1080p] Original Rus TorrentFilm 9.22 GB
Кино СССР Человек-амфибия (Владимир Чеботарев, Геннадий Казанский)[1961, фантастика, мелодрама, BDRip] sergej644 1.45 GB
Фильмы (HD DVD, Blu-ray и BDRemux) Человек-амфибия (Владимир Чеботарев, Геннадий Казанский)[1961,фантастика, фэнтези, мелодрама,BDRemux] sergej644 17.9 GB
Фильмы (DVD 5/9) Человек-амфибия (Геннадий Казанский, Владимир Чеботарев) [1961 г., Приключения, фантастика, Blu-ray>DVD9 (Custom)] TorrentFilm 6.92 GB
Показать сообщения:    

Текущее время: Сегодня 07:12

Часовой пояс: GMT



Вы не можете начинать темы
Вы не можете отвечать на сообщения
Вы не можете редактировать свои сообщения
Вы не можете удалять свои сообщения
Вы не можете голосовать в опросах
Вы не можете прикреплять файлы к сообщениям
Вы не можете скачивать файлы