Амулет / O Amuleto (Джеферсон Де / Jeferson De) [2015, Бразилия, Ужасы, триллер, DVDRip] VO + Original Por

 
Автор Сообщение

TorrentFilm ®

Пол:

Стаж: 1 год 11 месяцев

Сообщений: 7741



Награды: Нет

Торрент-статистика

Создавать темы 27-Окт-2015 00:09

[Цитировать]

Амулет / O Amuleto Страна: Бразилия
Жанр: Ужасы, триллер
Год выпуска: 2015
Продолжительность: 01:21:35
Перевод: Одноголосый закадровый: datynet; перевод: Куценко
Cубтитры: нет
Оригинальная аудиодорожка: португальский
Режиссер: Джеферсон Де / Jeferson De
В ролях: Мария Фернанда Кандиду, Бруна Линзмейер
Описание: Мозамбик Бич в Флорианополисе, где много нераскрытых несчастных случаев. Однажды, Диана, Алекс, Паулиньо и Марсина пошли на вечеринку в лес. На следующий день трое подростков найдены мёртвыми. Диана-единственная оставшийся в живых, но она не помнит, что произошло. Единственное, что поможет решить в этом дело, видео, записанное на сотовые телефоны.
Сэмпл: http://sendfile.su/1167642
Качество видео: DVDRip
Формат видео: AVI
Видео: 720x304 (2.37:1), 23.976 fps, Intel ITU H.264 ~1222 kbps avg, 0.23 bit/pixel
Аудио: MP3 44100Hz stereo 256kbps
Аудио 2: MP3 44100Hz stereo 192kbps

MediaInfo

Общее
Полное имя : G:\O.Amuleto.L1.DVDRip.avi
Формат : AVI
Формат/Информация : Audio Video Interleave
Размер файла : 984 Мбайт
Продолжительность : 1 ч. 21 м.
Общий поток : 1685 Кбит/сек
Программа кодирования : VirtualDubMod 1.5.10.3 | www.virtualdub-fr.org || (build 2550/release)
Библиотека кодирования : VirtualDubMod build 2550/release
Видео
Идентификатор : 0
Формат : AVC
Формат/Информация : Advanced Video Codec
Профиль формата : Baseline@L1.3
Параметр CABAC формата : Нет
Параметр ReFrames формата : 1 кадр
Параметр GOP формата : M=1, N=12
Идентификатор кодека : H264
Продолжительность : 1 ч. 21 м.
Битрейт : 1223 Кбит/сек
Ширина : 720 пикселей
Высота : 304 пикселя
Соотношение сторон : 2,40:1
Режим частоты кадров : Переменный
Частота кадров : 23,976 кадра/сек
Цветовое пространство : YUV
Субдискретизация насыщенности : 4:2:0
Битовая глубина : 8 бит
Тип развёртки : Прогрессивная
Бит/(Пиксели*Кадры) : 0.233
Размер потока : 714 Мбайт (73%)
Аудио #1
Идентификатор : 1
Формат : MPEG Audio
Версия формата : Version 1
Профиль формата : Layer 3
Идентификатор кодека : 55
Идентификатор кодека/Подсказка : MP3
Продолжительность : 1 ч. 21 м.
Вид битрейта : Постоянный
Битрейт : 256 Кбит/сек
Каналы : 2 канала
Частота : 44,1 КГц
Метод сжатия : С потерями
Размер потока : 149 Мбайт (15%)
Выравнивание : Разделение по промежуткам
Продолжительность промежутка : 42 мс. (1,00 видеокадр)
Время предзагрузки промежутка : 500 мс.
Аудио #2
Идентификатор : 2
Формат : MPEG Audio
Версия формата : Version 1
Профиль формата : Layer 3
Идентификатор кодека : 55
Идентификатор кодека/Подсказка : MP3
Продолжительность : 1 ч. 21 м.
Вид битрейта : Постоянный
Битрейт : 192 Кбит/сек
Каналы : 2 канала
Частота : 44,1 КГц
Метод сжатия : С потерями
Размер потока : 112 Мбайт (11%)
Выравнивание : Разделение по промежуткам
Продолжительность промежутка : 42 мс. (1,00 видеокадр)
Время предзагрузки промежутка : 500 мс.
Библиотека кодирования : LAME3.99r
Настройки программы : -m s -V 4 -q 0 -lowpass 18.6 -b 192

Скриншот c названием фильма

Скриншоты






[Профиль] [ЛС]
Показать сообщения:    

Текущее время: Сегодня 00:34

Часовой пояс: GMT



Вы не можете начинать темы
Вы не можете отвечать на сообщения
Вы не можете редактировать свои сообщения
Вы не можете удалять свои сообщения
Вы не можете голосовать в опросах
Вы не можете прикреплять файлы к сообщениям
Вы не можете скачивать файлы