Америка с высоты: Флорида / Aerial America: Florida (Тоби Бич / Toby Beach) [2013, Документальный, HDTVRip] Discovery

 
Автор Сообщение

reversefile ®

Пол:

Стаж: 4 года 11 месяцев

Сообщений: 842

Откуда: ReverseFile.org



Награды: Нет

Торрент-статистика

Создавать темы 24-Июл-2014 17:55

[Цитировать]

Америка с высоты: Флорида / Aerial America: Florida Год выпуска: 2013
Страна: США
Жанр: Документальный
Продолжительность: 00:43:39
Перевод: Профессиональный (дублированный)
Русские субтитры: нет
Режиссер: Тоби Бич
Описание: Отправьтесь в первоклассную поездку через одно из главных мест отдыха в мире: мы исследуем травянистые воды, песчаные берега и интригующую историю Флориды.
Сэмпл: http://multi-up.com/903699
Качество: HDTVRip
Формат: AVI
Видео: XVID, 720x400, 25.00fps, 1995kbps
Аудио: AC3, 48000Hz, 384kbps, 6ch

MediaInfo

General
Complete name : E:\Aerial America - Florida.avi
Format : AVI
Format/Info : Audio Video Interleave
File size : 746 MiB
Duration : 43mn 39s
Overall bit rate : 2 390 Kbps
Writing application : VirtualDubMod 1.5.10.2 (build 2540/release)
Writing library : VirtualDubMod build 2540/release
Copyright : fozzy412
Video
ID : 0
Format : MPEG-4 Visual
Format profile : Advanced Simple@L5
Format settings, BVOP : 1
Format settings, QPel : No
Format settings, GMC : No warppoints
Format settings, Matrix : Default (MPEG)
Codec ID : DX50
Codec ID/Hint : DivX 5
Duration : 43mn 39s
Bit rate : 1 996 Kbps
Width : 720 pixels
Height : 400 pixels
Display aspect ratio : 16:9
Frame rate : 25.000 fps
Color space : YUV
Chroma subsampling : 4:2:0
Bit depth : 8 bits
Scan type : Progressive
Compression mode : Lossy
Bits/(Pixel*Frame) : 0.277
Stream size : 623 MiB (84%)
Writing library : XviD 65
Audio
ID : 1
Format : AC-3
Format/Info : Audio Coding 3
Mode extension : CM (complete main)
Codec ID : 2000
Duration : 43mn 39s
Bit rate mode : Constant
Bit rate : 384 Kbps
Channel(s) : 6 channels
Channel positions : Front: L C R, Side: L R, LFE
Sampling rate : 48.0 KHz
Bit depth : 16 bits
Compression mode : Lossy
Stream size : 120 MiB (16%)
Alignment : Split accross interleaves
Interleave, duration : 40 ms (1.00 video frame)
Interleave, preload duration : 500 ms

Скриншоты

[Профиль] [ЛС]
Кто просматривает тему:

Форум Тема Автор Размер
BBC BBC: Искусство Америки / Art of America [серии 1-3 из 3] (Пол Тилзи / Paul Tilzey, Йен Лиз / Ian Leese) [2011 г., Документальный, история искусств, HDTVRip 720p] skorpionN 5.52 GB
Viasat History Viasat History: Американские принцессы на миллион долларов / Million Dollar American Princesses [сезоны 1-2 серии 1-7 из 7] (Ian Lilley) [2015-2016 г., Документальный, игровой, биографи... skorpionN 4.51 GB
Фильмы 2017 года Американская жестокость / American Violence (2017) WEB-DLRip | L BOSS 1.44 GB
Фильмы 2017 года Американская жестокость / American Violence (2017) НDRip | L BOSS 1.46 GB
Зарубежные сериалы Американские боги / American Gods [2017] (Сезон 1 , Серия 1- 8 из 8) (Дэвид Слэйд, Адам Кэйн, Винченцо Натали) [ Фэнтези, детектив , WEB-DLRip][1080p][HEVC ][... Враг Нароода 39.98 GB
Зарубежные сериалы Американские боги / American Gods [2017] (Сезон 1 , Серия 1- 8 из 8) (Дэвид Слэйд, Адам Кэйн, Винченцо Натали) [ Фэнтези, детектив , WEB-DLRip][720p][... Враг Нароода 28.27 GB
Показать сообщения:    

Текущее время: Сегодня 21:10

Часовой пояс: GMT



Вы не можете начинать темы
Вы не можете отвечать на сообщения
Вы не можете редактировать свои сообщения
Вы не можете удалять свои сообщения
Вы не можете голосовать в опросах
Вы не можете прикреплять файлы к сообщениям
Вы не можете скачивать файлы