Америка с высоты: Колорадо / Aerial America: Colorado (Тоби Бич / Toby Beach) [2013, Документальный, HDTVRip] Discovery

 
Автор Сообщение

reversefile ®

Пол:

Стаж: 4 года 5 месяцев

Сообщений: 842

Откуда: ReverseFile.org



Награды: Нет

Торрент-статистика

Создавать темы 24-Июл-2014 17:55

[Цитировать]

Америка с высоты: Колорадо / Aerial America: Colorado Год выпуска: 2013
Страна: США
Жанр: Документальный
Продолжительность: 00:43:36
Перевод: Профессиональный (дублированный)
Русские субтитры: нет
Режиссер: Тоби Бич
Описание: Штат с 13,000-летней историей, помеченный войной, золотой лихорадкой и легендарными ограблениями банков. После всего этого Колорадо остается банкетом для глаз, оправданно вдохновляя гимн "Америка Прекрасна".
Сэмпл: http://multi-up.com/903824
Качество: HDTVRip
Формат: AVI
Видео: XVID, 720x400, 25.00fps, 1998kbps
Аудио: AC3, 48000Hz, 384kbps, 6ch

MediaInfo

General
Complete name : E:\Aerial America - Colorado.avi
Format : AVI
Format/Info : Audio Video Interleave
File size : 746 MiB
Duration : 43mn 36s
Overall bit rate : 2 392 Kbps
Writing application : VirtualDubMod 1.5.10.2 (build 2540/release)
Writing library : VirtualDubMod build 2540/release
Copyright : fozzy412
Video
ID : 0
Format : MPEG-4 Visual
Format profile : Advanced Simple@L5
Format settings, BVOP : 1
Format settings, QPel : No
Format settings, GMC : No warppoints
Format settings, Matrix : Default (MPEG)
Codec ID : DX50
Codec ID/Hint : DivX 5
Duration : 43mn 36s
Bit rate : 1 998 Kbps
Width : 720 pixels
Height : 400 pixels
Display aspect ratio : 16:9
Frame rate : 25.000 fps
Color space : YUV
Chroma subsampling : 4:2:0
Bit depth : 8 bits
Scan type : Progressive
Compression mode : Lossy
Bits/(Pixel*Frame) : 0.278
Stream size : 623 MiB (84%)
Writing library : XviD 65
Audio
ID : 1
Format : AC-3
Format/Info : Audio Coding 3
Mode extension : CM (complete main)
Codec ID : 2000
Duration : 43mn 36s
Bit rate mode : Constant
Bit rate : 384 Kbps
Channel(s) : 6 channels
Channel positions : Front: L C R, Side: L R, LFE
Sampling rate : 48.0 KHz
Bit depth : 16 bits
Compression mode : Lossy
Stream size : 120 MiB (16%)
Alignment : Split accross interleaves
Interleave, duration : 40 ms (1.00 video frame)
Interleave, preload duration : 500 ms

Скриншоты

[Профиль] [ЛС]
Кто просматривает тему:

Форум Тема Автор Размер
BBC BBC: Искусство Америки / Art of America [серии 1-3 из 3] (Пол Тилзи / Paul Tilzey, Йен Лиз / Ian Leese) [2011 г., Документальный, история искусств, HDTVRip 720p] skorpionN 5.52 GB
Discovery Discovery: Америка: факты и домыслы / America: Facts vs. Fiction [сезон 2 серии 1-12 из 12] [2010 г., Документальный, постановочный, история, SATRip] skorpionN 3.7 GB
Nat Geo Wild Nat Geo Wild: Национальные парки Америки. Арктические врата / America's National Parks. Gates of the Arctic [сезон 1 серия 4] (Uwe Anders) [2015 г., Документальный, природа, флора, фауна,... skorpionN 1.48 GB
Nat Geo Wild Nat Geo Wild: Национальные парки Америки. Большой каньон / America's National Parks. Grand Canyon [сезон 1 серия 5](Henry M. Mix, Yann Sochaczewski) [2015 г., Документальный, природа, фл... skorpionN 1.53 GB
Nat Geo Wild Nat Geo Wild: Национальные парки Америки. Грейт-Смоки-Маунтинс / America's National Parks. Great Smoky Mountain [сезон 1 серия 8] (Jan Haft) [2015 г., Документальный, природа, флора, фауна,... skorpionN 1.51 GB
Nat Geo Wild Nat Geo Wild: Национальные парки Америки. Йеллоустоун / America's National Parks. Yellowstone [сезон 1 серия 6] (Оливер Гётцль / Oliver Goetzl) [2015 г., Документальный, природа, флора, фауна,... skorpionN 1.54 GB
Nat Geo Wild Nat Geo Wild: Национальные парки Америки. Йосемити / America's National Parks. Yosemite [сезон 1 серия 2] (Оливер Гётцль / Oliver Goetzl) [2015 г., Документальный, природа, флора, фауна,... skorpionN 1.59 GB
Nat Geo Wild Nat Geo Wild: Национальные парки Америки. Олимпик / America's National Parks. Olympic [сезон 1 серия 1] (Florian Graner) [2015 г., Документальный, природа, флора, фауна, HDTVRip 720p] skorpionN 1.54 GB
Показать сообщения:    

Текущее время: Сегодня 14:54

Часовой пояс: GMT



Вы не можете начинать темы
Вы не можете отвечать на сообщения
Вы не можете редактировать свои сообщения
Вы не можете удалять свои сообщения
Вы не можете голосовать в опросах
Вы не можете прикреплять файлы к сообщениям
Вы не можете скачивать файлы