Американцы в постели / Americans in bed (Philippa Robinson) [2014, Документальный, HDTVRip 720p]

 
Автор Сообщение

TorrentFilm ®

Пол:

Стаж: 2 года

Сообщений: 7741



Награды: Нет

Торрент-статистика

Создавать темы 13-Мар-2015 00:02

[Цитировать]

Американцы в постели / Americans in bed
Год выпуска: 2014
Страна: США
Студия: HBO Films
Жанр: Документальный
Продолжительность: 01:17:07
Перевод: Профессиональный (двухголосый закадровый)
Доп. инфо о переводе: Медиа ТВ
Режиссер: Philippa Robinson
Описание: Документальный фильм НВО о секретах семейного счастья. Как сделать брак долгим и счастливым? Ответить на этот вопрос постараются десять американских пар разного возраста, национальности, религии и сексуальной ориентации.
Сэмпл: Скачать
Тип релиза: HDTVRip 720p
Контейнер: MKV
Видео: MPEG-4 AVC, 3900 Кбит/с, 1280x720
Аудио: Русский АС3, 6 ch, 384 Кбит/с
Аудио 2: Английский MP2, 2 ch, 192 Кбит/с

MediaInfo

GeneralUnique ID : 227446298750878562260048116248944491932 (0xAB1C9051F2D6A994A2C61F0A5112BD9C)Complete name : F:\Американцы в постели_720p.mkvFormat : MatroskaFormat version : Version 4 / Version 2File size : 2.41 GiBDuration : 1h 17mnOverall bit rate : 4 479 KbpsEncoded date : UTC 2015-03-09 14:39:20Writing application : mkvmerge v6.6.0 ('The Edge Of The In Between') built on Dec 1 2013 17:55:00Writing library : libebml v1.3.0 + libmatroska v1.4.1
VideoID : 1Format : AVCFormat/Info : Advanced Video CodecFormat profile : High@L4.1Format settings, CABAC : YesFormat settings, ReFrames : 9 framesCodec ID : V_MPEG4/ISO/AVCDuration : 1h 17mnBit rate : 3 900 KbpsWidth : 1 280 pixelsHeight : 720 pixelsDisplay aspect ratio : 16:9Frame rate mode : ConstantFrame rate : 25.000 fpsColor space : YUVChroma subsampling : 4:2:0Bit depth : 8 bitsScan type : ProgressiveBits/(Pixel*Frame) : 0.169Stream size : 2.05 GiB (85%)Writing library : x264 core 142 r2431 ac76440Encoding settings : cabac=1 / ref=9 / deblock=1:-3:-3 / analyse=0x3:0x133 / me=umh / subme=9 / psy=1 / psy_rd=1.00:0.10 / mixed_ref=1 / me_range=32 / chroma_me=1 / trellis=2 / 8x8dct=1 / cqm=0 / deadzone=21,11 / fast_pskip=1 / chroma_qp_offset=-3 / threads=6 / lookahead_threads=1 / sliced_threads=0 / nr=0 / decimate=0 / interlaced=0 / bluray_compat=0 / constrained_intra=0 / bframes=12 / b_pyramid=2 / b_adapt=2 / b_bias=0 / direct=3 / weightb=1 / open_gop=0 / weightp=2 / keyint=250 / keyint_min=23 / scenecut=40 / intra_refresh=0 / rc=2pass / mbtree=0 / bitrate=3900 / ratetol=1.0 / qcomp=0.60 / qpmin=0 / qpmax=69 / qpstep=4 / cplxblur=20.0 / qblur=0.5 / ip_ratio=1.40 / pb_ratio=1.30 / aq=1:1.00Language : EnglishDefault : YesForced : No
Audio #1ID : 2Format : AC-3Format/Info : Audio Coding 3Mode extension : CM (complete main)Format settings, Endianness : BigCodec ID : A_AC3Duration : 1h 17mnBit rate mode : ConstantBit rate : 384 KbpsChannel(s) : 6 channelsChannel positions : Front: L C R, Side: L R, LFESampling rate : 48.0 KHzBit depth : 16 bitsCompression mode : LossyDelay relative to video : 47msStream size : 212 MiB (9%)Language : RussianDefault : YesForced : No
Audio #2ID : 3Format : MPEG AudioFormat version : Version 1Format profile : Layer 2Mode : Joint stereoMode extension : Intensity Stereo + MS StereoCodec ID : A_MPEG/L2Codec ID/Hint : MP2Duration : 1h 17mnBit rate mode : ConstantBit rate : 192 KbpsChannel(s) : 2 channelsSampling rate : 48.0 KHzCompression mode : LossyDelay relative to video : 71msStream size : 106 MiB (4%)Language : EnglishDefault : NoForced : No

Скриншоты


[Профиль] [ЛС]
Кто просматривает тему:

Форум Тема Автор Размер
BBC BBC: Искусство Америки / Art of America [серии 1-3 из 3] (Пол Тилзи / Paul Tilzey, Йен Лиз / Ian Leese) [2011 г., Документальный, история искусств, HDTVRip 720p] skorpionN 5.52 GB
Discovery Discovery: Америка: факты и домыслы / America: Facts vs. Fiction [сезон 2 серии 1-12 из 12] [2010 г., Документальный, постановочный, история, SATRip] skorpionN 3.7 GB
Nat Geo Wild Nat Geo Wild: Национальные парки Америки. Арктические врата / America's National Parks. Gates of the Arctic [сезон 1 серия 4] (Uwe Anders) [2015 г., Документальный, природа, флора, фауна,... skorpionN 1.48 GB
Nat Geo Wild Nat Geo Wild: Национальные парки Америки. Большой каньон / America's National Parks. Grand Canyon [сезон 1 серия 5](Henry M. Mix, Yann Sochaczewski) [2015 г., Документальный, природа, фл... skorpionN 1.53 GB
Nat Geo Wild Nat Geo Wild: Национальные парки Америки. Грейт-Смоки-Маунтинс / America's National Parks. Great Smoky Mountain [сезон 1 серия 8] (Jan Haft) [2015 г., Документальный, природа, флора, фауна,... skorpionN 1.51 GB
Nat Geo Wild Nat Geo Wild: Национальные парки Америки. Йеллоустоун / America's National Parks. Yellowstone [сезон 1 серия 6] (Оливер Гётцль / Oliver Goetzl) [2015 г., Документальный, природа, флора, фауна,... skorpionN 1.54 GB
Nat Geo Wild Nat Geo Wild: Национальные парки Америки. Йосемити / America's National Parks. Yosemite [сезон 1 серия 2] (Оливер Гётцль / Oliver Goetzl) [2015 г., Документальный, природа, флора, фауна,... skorpionN 1.59 GB
Nat Geo Wild Nat Geo Wild: Национальные парки Америки. Олимпик / America's National Parks. Olympic [сезон 1 серия 1] (Florian Graner) [2015 г., Документальный, природа, флора, фауна, HDTVRip 720p] skorpionN 1.54 GB
Показать сообщения:    

Текущее время: Сегодня 08:57

Часовой пояс: GMT



Вы не можете начинать темы
Вы не можете отвечать на сообщения
Вы не можете редактировать свои сообщения
Вы не можете удалять свои сообщения
Вы не можете голосовать в опросах
Вы не можете прикреплять файлы к сообщениям
Вы не можете скачивать файлы