Американское преступление / An American Crime (Томми О’Хейвер) [2007 г., драма, криминал, биография, BDRip-AVC] [MVO]

 
Автор Сообщение

Bathory ®

Пол:

Стаж: 1 год 9 месяцев

Сообщений: 320



Награды: 3 (Подробнее)

За внесенный вклад в развитие сайта (Количество: 1) Girls (Количество: 1) Друг (Количество: 1)
Торрент-статистика

Создавать темы 04-Авг-2017 19:03

[Цитировать]

Американское преступление / An American Crime- Информация о фильме
Название: Американское преступление
Оригинальное название: An American Crime
Год выхода: 2007
Жанр: драма, криминал, биография
Режиссер: Томми О’Хейвер
В ролях: Эллен Пейдж, Кэтрин Кинер, Хейли МакФарланд, Эри Грейнор, Ивэн Питерс, Брэдли Уитфорд, Ханна Ли Дворкин, Скаут Тэйлор-Комптон, Карли Вестерман, Ник Сирси.
О фильме :
Действие фильма происходит в 60-х годах, картина основана на реальных событиях. Страшный фильм, рассказывающий историю девушки, которая стала жертвой сумасшедшей домработницы. Главная героиня, на первый взгляд, обыкновенная домработница по имени Гертруда Банижевски. Однако, никто не знает, что твориться у неё в голове и на что она способна. Когда Гертруда не получает деньги за свою работу, она запирает девушку, за которой она должна была присматривать, в подвале. Там Гертруда издевается над бедной девушкой всеми возможными способами…

Страна: США
Студия: First Look International, Killer Films, Showtime Networks
Продолжительность: 01:37:33
Перевод: Любительский (многоголосый закадровый)
Файл
Формат: MKV
Качество: BDRip-AVC |BDRemux 1080p|
Видео: 1072x456, 2740 kbps, 23,976 fps, 0,234 Bits/(Pixel*Frame)
Аудио: AAC, 48 kHz, 6 ch, 448 kbps
Субтитры: Русские , английские

MI

Общее
Unique ID : 233166039658489115663059278886781978345 (0xAF6A2551C9E89209B858F02F7C2E06E9)
Complete name : F:\An.American.Crime.2007.BDRip-AVC.MegaPeer.mkv
Format : Matroska
Format version : Version 4 / Version 2
File size : 2,17 Гбайт
Duration : 1 ч. 37 м.
Overall bit rate : 3187 Кбит/сек
Encoded date : UTC 2017-08-04 18:29:03
Writing application : mkvmerge v14.0.0 ('Flow') 64bit
Writing library : libebml v1.3.4 + libmatroska v1.4.5
Видео
ID : 1
Format : AVC
Format/Info : Advanced Video Codec
Format profile : High@L4.1
Format settings, CABAC : Да
Format settings, ReFrames : 10 кадров
Codec ID : V_MPEG4/ISO/AVC
Duration : 1 ч. 37 м.
Bit rate : 2740 Кбит/сек
Width : 1072 пикселя
Height : 456 пикселей
Display aspect ratio : 2,35:1
Frame rate mode : Постоянный
Frame rate : 23,976 (23976/1000) кадра/сек
Original frame rate : 23,976 (24000/1001) кадра/сек
Color space : YUV
Chroma subsampling : 4:2:0
Bit depth : 8 бит
Scan type : Прогрессивная
Bits/(Pixel*Frame) : 0.234
Stream size : 1,87 Гбайт (86%)
Writing library : x264 core 148 r2744 b97ae06
Encoding settings : cabac=1 / ref=10 / deblock=1:-3:-2 / analyse=0x3:0x113 / me=umh / subme=11 / psy=1 / psy_rd=1.00:0.12 / mixed_ref=1 / me_range=32 / chroma_me=1 / trellis=2 / 8x8dct=1 / cqm=0 / deadzone=21,11 / fast_pskip=0 / chroma_qp_offset=-3 / threads=12 / lookahead_threads=3 / sliced_threads=0 / nr=0 / decimate=1 / interlaced=0 / bluray_compat=0 / constrained_intra=0 / bframes=12 / b_pyramid=2 / b_adapt=2 / b_bias=0 / direct=3 / weightb=1 / open_gop=0 / weightp=2 / keyint=240 / keyint_min=23 / scenecut=40 / intra_refresh=0 / rc_lookahead=60 / rc=2pass / mbtree=1 / bitrate=2740 / ratetol=1.0 / qcomp=0.60 / qpmin=0 / qpmax=69 / qpstep=4 / cplxblur=20.0 / qblur=0.5 / ip_ratio=1.40 / aq=1:1.00
Default : Да
Forced : Нет
Аудио
ID : 2
Format : AC-3
Format/Info : Audio Coding 3
Mode extension : CM (complete main)
Format settings, Endianness : Big
Codec ID : A_AC3
Duration : 1 ч. 37 м.
Bit rate mode : Постоянный
Bit rate : 448 Кбит/сек
Channel(s) : 6 каналов
Channel positions : Front: L C R, Side: L R, LFE
Sampling rate : 48,0 КГц
Frame rate : 31,250 кадров/сек (1536 spf)
Compression mode : С потерями
Stream size : 313 Мбайт (14%)
Language : Russian
Default : Да
Forced : Нет
Текст #1
ID : 3
Format : ASS
Codec ID : S_TEXT/ASS
Codec ID/Info : Advanced Sub Station Alpha
Duration : 1 ч. 31 м.
Bit rate : 152 бит/сек
Count of elements : 1275
Compression mode : Без потерь
Stream size : 102 Кбайт (0%)
Language : Russian
Default : Нет
Forced : Нет
Текст #2
ID : 4
Format : UTF-8
Codec ID : S_TEXT/UTF8
Codec ID/Info : UTF-8 Plain Text
Duration : 1 ч. 31 м.
Bit rate : 55 бит/сек
Count of elements : 1258
Stream size : 36,7 Кбайт (0%)
Language : English
Default : Нет
Forced : Нет

Скриншоты

Релиз:
[Профиль] [ЛС]
Кто просматривает тему:

Форум Тема Автор Размер
BBC BBC: Искусство Америки / Art of America [серии 1-3 из 3] (Пол Тилзи / Paul Tilzey, Йен Лиз / Ian Leese) [2011 г., Документальный, история искусств, HDTVRip 720p] skorpionN 5.52 GB
Discovery Discovery: Америка: факты и домыслы / America: Facts vs. Fiction [сезон 2 серии 1-12 из 12] [2010 г., Документальный, постановочный, история, SATRip] skorpionN 3.7 GB
Discovery Discovery: Столпы Америки / American Titans [сезон 1 серии 6 из 6] (Katie Kennedy) [2015 г., Доку-драма, игровой, биография, история, DVB] skorpionN 5.59 GB
History History: Машины, которые создали Америку / The Cars That Made America [серии 1-3 из 3] [2017 г., Доку-драма, биография, история, HDTVRip-AVC 720p] skorpionN 8.9 GB
Nat Geo Wild Nat Geo Wild: Национальные парки Америки. Арктические врата / America's National Parks. Gates of the Arctic [сезон 1 серия 4] (Uwe Anders) [2015 г., Документальный, природа, флора, фауна,... skorpionN 1.48 GB
Nat Geo Wild Nat Geo Wild: Национальные парки Америки. Большой каньон / America's National Parks. Grand Canyon [сезон 1 серия 5](Henry M. Mix, Yann Sochaczewski) [2015 г., Документальный, природа, фл... skorpionN 1.53 GB
Nat Geo Wild Nat Geo Wild: Национальные парки Америки. Грейт-Смоки-Маунтинс / America's National Parks. Great Smoky Mountain [сезон 1 серия 8] (Jan Haft) [2015 г., Документальный, природа, флора, фауна,... skorpionN 1.51 GB
Nat Geo Wild Nat Geo Wild: Национальные парки Америки. Йеллоустоун / America's National Parks. Yellowstone [сезон 1 серия 6] (Оливер Гётцль / Oliver Goetzl) [2015 г., Документальный, природа, флора, фауна,... skorpionN 1.54 GB
Показать сообщения:    

Текущее время: Сегодня 17:44

Часовой пояс: GMT



Вы не можете начинать темы
Вы не можете отвечать на сообщения
Вы не можете редактировать свои сообщения
Вы не можете удалять свои сообщения
Вы не можете голосовать в опросах
Вы не можете прикреплять файлы к сообщениям
Вы не можете скачивать файлы