Американский пижон / American Dresser (2018) WEBRip | L2

 
Автор Сообщение

BOSS ®

Пол:

Стаж: 4 года

Сообщений: 12134

Откуда: ODESSA



Награды: 22 (Подробнее)

Top Seeder 2 (Количество: 1) Top Releaser 2 (Количество: 1) Top Seeder 5 (Количество: 1)
Торрент-статистика

Создавать темы 06-Окт-2018 10:38

[Цитировать]

Информация о фильме
Название: Американский пижон
Оригинальное название: American Dresser
Год выхода: 2018
Жанр: Драма, приключения
Режиссер: Кармин Каньялоси
В ролях: Джина Гершон, Пенелопа Энн Миллер, Том Беренджер, Кит Дэвид, Джефф Фэйи, Брюс Дерн, Кэтрин Нардуччи, Эндрю Бринярски, Бекки О’Донахью, Эль МакЛемор и другие
О фильме:
Джек недавно овдовел. Наполненный сожалениями он отправляется в поездку на своем мотоцикле через всю страну, чтобы встретиться лицом к лицу с ошибками прошлого, но с каждой милей, для него становится все более очевидным, что жизнь продолжается.

Страна: США, The Film House, Go With The Flo Films, Sprockefeller Pictures
Продолжительность: 01:37:59
Перевод: Любительский (двухголосый закадровый) | HiWay Grope
Файл
Кодек: XviD
Качество: WEBRip
Видео: 720x304, 23.976 fps, ~1694 kbps, 0.32 bit/pixel
Звук:
Аудио rus: AC3, 48 kHz, 6 ch, 384 Kbps
Субтитры: отсутствуют
Реклама: присутствует
Семпл

MediaInfo:

General
Complete name : D:American.Dresser.2018.WEBRip.HiWayGropeAmerican.Dresser.2018.WEBRip.HiWayGrope.avi
Format : AVI
Format/Info : Audio Video Interleave
File size : 1.43 GiB
Duration : 1 h 37 min
Overall bit rate : 2 088 kb/s
Writing application : VirtualDubMod 1.5.10.3 (build 2550/release)
Writing library : VirtualDubMod build 2550/release
Video
ID : 0
Format : MPEG-4 Visual
Format profile : Simple@L5
Format settings : BVOP1
Format settings, BVOP : 1
Format settings, QPel : No
Format settings, GMC : No warppoints
Format settings, Matrix : Default (MPEG)
Codec ID : XVID
Codec ID/Hint : XviD
Duration : 1 h 37 min
Bit rate : 1 695 kb/s
Width : 720 pixels
Height : 304 pixels
Display aspect ratio : 2.40:1
Frame rate : 23.976 (24000/1001) FPS
Color space : YUV
Chroma subsampling : 4:2:0
Bit depth : 8 bits
Scan type : Progressive
Compression mode : Lossy
Bits/(Pixel*Frame) : 0.323
Stream size : 1.16 GiB (81%)
Writing library : XviD 67
Audio
ID : 1
Format : AC-3
Format/Info : Audio Coding 3
Codec ID : 2000
Duration : 1 h 37 min
Bit rate mode : Constant
Bit rate : 384 kb/s
Channel(s) : 6 channels
Channel positions : Front: L C R, Side: L R, LFE
Sampling rate : 48.0 kHz
Frame rate : 31.250 FPS (1536 SPF)
Bit depth : 16 bits
Compression mode : Lossy
Stream size : 269 MiB (18%)
Alignment : Split accross interleaves
Interleave, duration : 42 ms (1.00 video frame)
Interleave, preload duration : 500 ms
Service kind : Complete Main

Скриншоты

Релиз от: HiWay Grope
[Профиль] [ЛС]
Кто просматривает тему:

Форум Тема Автор Размер
Rock (Russian Rock) Вячеслав Бутусов - Гудбай, Америка! - 2017 [FLAC, tracks +.cue, lossless] sergej644 430 MB
BBC BBC: Искусство Америки / Art of America [серии 1-3 из 3] (Пол Тилзи / Paul Tilzey, Йен Лиз / Ian Leese) [2011 г., Документальный, история искусств, HDTVRip 720p] skorpionN 5.52 GB
Discovery Discovery: Америка: факты и домыслы / America: Facts vs. Fiction [сезон 2 серии 1-12 из 12] [2010 г., Документальный, постановочный, история, SATRip] skorpionN 3.7 GB
Discovery Discovery: Столпы Америки / American Titans [сезон 1 серии 6 из 6] (Katie Kennedy) [2015 г., Доку-драма, игровой, биография, история, DVB] skorpionN 5.59 GB
History History: Машины, которые создали Америку / The Cars That Made America [серии 1-3 из 3] [2017 г., Доку-драма, биография, история, HDTVRip-AVC 720p] skorpionN 8.9 GB
Nat Geo Wild Nat Geo Wild: Национальные парки Америки. Арктические врата / America's National Parks. Gates of the Arctic [сезон 1 серия 4] (Uwe Anders) [2015 г., Документальный, природа, флора, фауна,... skorpionN 1.48 GB
Nat Geo Wild Nat Geo Wild: Национальные парки Америки. Большой каньон / America's National Parks. Grand Canyon [сезон 1 серия 5](Henry M. Mix, Yann Sochaczewski) [2015 г., Документальный, природа, фл... skorpionN 1.53 GB
Nat Geo Wild Nat Geo Wild: Национальные парки Америки. Грейт-Смоки-Маунтинс / America's National Parks. Great Smoky Mountain [сезон 1 серия 8] (Jan Haft) [2015 г., Документальный, природа, флора, фауна,... skorpionN 1.51 GB
Показать сообщения:    

Текущее время: Сегодня 12:01

Часовой пояс: GMT



Вы не можете начинать темы
Вы не можете отвечать на сообщения
Вы не можете редактировать свои сообщения
Вы не можете удалять свои сообщения
Вы не можете голосовать в опросах
Вы не можете прикреплять файлы к сообщениям
Вы не можете скачивать файлы