Американский герой / American Hero (2015) BDRip 720р от SuperMin | L1

 
Автор Сообщение

достали все ®

Пол:

Стаж: 1 год 8 месяцев

Сообщений: 6545



Награды: 12 (Подробнее)

Mega Releaser 3 (Количество: 1) Mega Releaser 2 (Количество: 1) За внесенный вклад в развитие сайта (Количество: 1)
Торрент-статистика

Создавать темы 01-Мар-2016 12:47

[Цитировать]

Информация о фильме
Название: Американский герой
Оригинальное название: American Hero
Год выхода: 2015
Жанр: фантастика, боевик, комедия
Режиссер: Ник Лав
В ролях: Стивен Дорфф, Эдди Гриффин, Bill Billions, Jonathan Billions, Андреа Коэн, Луис Да Силва мл., Кина Фергюсон, Рэден Грир, Грэйсон Килпэтрик, Йоханс Майлс
О фильме:
Мелвин — супергерой поневоле, который живёт только ради лёгких денег, женщин и наркотиков. Но однажды он понимает, что единственный способ наладить отношения со своим единственным сыном — встать на путь исправления.

Страна: США
Студия: Vertigo Films
Продолжительность: 01:26:16
Перевод: Любительское (одноголосое) [datynet], перевод [Куценко]
Файл
Кодек: H.264
Качество: BDRip 720р от SuperMin
Видео: 1280x688 (1.85:1), 4678 kbps, 23.976 fps
Звук:
Русский (AC-3, 2ch, 192 kbps)
Оригинал (DTS, 6ch, 1509 kbps)
Субтитры: Английские

Лог

x264 [info]: frame I:698 Avg QP:17.41 size:119852
x264 [info]: frame P:30416 Avg QP:19.87 size: 47209
x264 [info]: frame B:92988 Avg QP:22.15 size: 16981
x264 [info]: consecutive B-frames: 3.2% 4.1% 13.0% 20.7% 21.1% 30.0% 5.0% 1.1% 1.6%
encoded 124102 frames, 7.34 fps, 4729.15 kb/s

MI

General
Unique ID : 202414292973448965462402058211655715683 (0x9847932627C1855387744C3D045C8B63)
Complete name : F:ФИЛЬМЫАмериканский.Герой.2015.x264.BDRip.720p.mkv
Format : Matroska
Format version : Version 4 / Version 2
File size : 3.92 GiB
Duration : 1h 26mn
Overall bit rate : 6 508 Kbps
Movie name : RARBG.COM - American.Hero.2015.1080p.BluRay.REMUX.AVC.DTS-HD.MA.5.1-RARBG
Encoded date : UTC 2016-03-01 10:03:33
Writing application : mkvmerge v8.3.0 ('Over the Horizon') 64bit
Writing library : libebml v1.3.1 + libmatroska v1.4.2
DURATION : 01:26:16.032000000
NUMBER_OF_FRAMES : 161751
NUMBER_OF_BYTES : 124224768
_STATISTICS_WRITING_APP : mkvmerge v8.3.0 ('Over the Horizon') 64bit
_STATISTICS_WRITING_DATE_UT : 2016-03-01 10:03:33
_STATISTICS_TAGS : BPS DURATION NUMBER_OF_FRAMES NUMBER_OF_BYTES
Video
ID : 1
Format : AVC
Format/Info : Advanced Video Codec
Format profile : High@L4.1
Format settings, CABAC : Yes
Format settings, ReFrames : 9 frames
Codec ID : V_MPEG4/ISO/AVC
Duration : 1h 26mn
Bit rate : 4 678 Kbps
Width : 1 280 pixels
Height : 688 pixels
Display aspect ratio : 1.85:1
Frame rate mode : Constant
Frame rate : 23.976 fps
Color space : YUV
Chroma subsampling : 4:2:0
Bit depth : 8 bits
Scan type : Progressive
Bits/(Pixel*Frame) : 0.222
Stream size : 2.82 GiB (72%)
Writing library : x264 core 146 r2538 121396c
Encoding settings : cabac=1 / ref=9 / deblock=1:-2:-2 / analyse=0x3:0x113 / me=umh / subme=10 / psy=1 / psy_rd=1.00:0.00 / mixed_ref=1 / me_range=32 / chroma_me=1 / trellis=2 / 8x8dct=1 / cqm=0 / deadzone=21,11 / fast_pskip=0 / chroma_qp_offset=-2 / threads=12 / lookahead_threads=2 / sliced_threads=0 / nr=0 / decimate=1 / interlaced=0 / bluray_compat=0 / constrained_intra=0 / bframes=8 / b_pyramid=2 / b_adapt=2 / b_bias=0 / direct=1 / weightb=1 / open_gop=0 / weightp=2 / keyint=240 / keyint_min=23 / scenecut=40 / intra_refresh=0 / rc_lookahead=40 / rc=crf / mbtree=0 / crf=19.0 / qcomp=0.60 / qpmin=0 / qpmax=69 / qpstep=4 / vbv_maxrate=14000 / vbv_bufsize=14000 / crf_max=0.0 / nal_hrd=none / filler=0 / ip_ratio=1.40 / pb_ratio=1.30 / aq=1:1.00
Default : Yes
Forced : No
Audio #1
ID : 2
Format : AC-3
Format/Info : Audio Coding 3
Mode extension : CM (complete main)
Format settings, Endianness : Big
Codec ID : A_AC3
Duration : 1h 26mn
Bit rate mode : Constant
Bit rate : 192 Kbps
Channel(s) : 2 channels
Channel positions : Front: L R
Sampling rate : 48.0 KHz
Compression mode : Lossy
Stream size : 118 MiB (3%)
Language : Russian
Default : Yes
Forced : No
Audio #2
ID : 3
Format : DTS
Format/Info : Digital Theater Systems
Mode : 16
Format settings, Endianness : Big
Codec ID : A_DTS
Duration : 1h 26mn
Bit rate mode : Constant
Bit rate : 1 509 Kbps
Channel(s) : 6 channels
Channel positions : Front: L C R, Side: L R, LFE
Sampling rate : 48.0 KHz
Bit depth : 24 bits
Compression mode : Lossy
Stream size : 931 MiB (23%)
Language : English
Default : No
Forced : No
DURATION : 01:26:16.053000000
NUMBER_OF_FRAMES : 485255
NUMBER_OF_BYTES : 976333060
_STATISTICS_WRITING_APP : mkvmerge v8.3.0 ('Over the Horizon') 64bit
_STATISTICS_WRITING_DATE_UT : 2016-03-01 10:03:33
_STATISTICS_TAGS : BPS DURATION NUMBER_OF_FRAMES NUMBER_OF_BYTES
Text
ID : 4
Format : PGS
Muxing mode : zlib
Codec ID : S_HDMV/PGS
Codec ID/Info : Picture based subtitle format used on BDs/HD-DVDs
Title : English-PGS
Language : English
Default : No
Forced : No
DURATION : 01:21:37.226000000
NUMBER_OF_FRAMES : 2902
NUMBER_OF_BYTES : 10119821
_STATISTICS_WRITING_APP : mkvmerge v8.3.0 ('Over the Horizon') 64bit
_STATISTICS_WRITING_DATE_UT : 2016-03-01 10:03:33
_STATISTICS_TAGS : BPS DURATION NUMBER_OF_FRAMES NUMBER_OF_BYTES
Menu
00:00:00.000 : en:Chapter 01
00:04:49.247 : en:Chapter 02
00:09:44.875 : en:Chapter 03
00:17:21.165 : en:Chapter 04
00:24:48.612 : en:Chapter 05
00:36:04.620 : en:Chapter 06
00:41:13.137 : en:Chapter 07
00:51:56.404 : en:Chapter 08
00:59:37.156 : en:Chapter 09
01:11:07.137 : en:Chapter 10
01:16:23.579 : en:Chapter 11
01:22:30.278 : en:Chapter 12

Скриншоты

[Профиль] [ЛС]
Кто просматривает тему:

Форум Тема Автор Размер
BBC BBC: Искусство Америки / Art of America [серии 1-3 из 3] (Пол Тилзи / Paul Tilzey, Йен Лиз / Ian Leese) [2011 г., Документальный, история искусств, HDTVRip 720p] skorpionN 5.52 GB
Discovery Discovery: Америка: факты и домыслы / America: Facts vs. Fiction [сезон 2 серии 1-12 из 12] [2010 г., Документальный, постановочный, история, SATRip] skorpionN 3.7 GB
Nat Geo Wild Nat Geo Wild: Национальные парки Америки. Арктические врата / America's National Parks. Gates of the Arctic [сезон 1 серия 4] (Uwe Anders) [2015 г., Документальный, природа, флора, фауна,... skorpionN 1.48 GB
Nat Geo Wild Nat Geo Wild: Национальные парки Америки. Большой каньон / America's National Parks. Grand Canyon [сезон 1 серия 5](Henry M. Mix, Yann Sochaczewski) [2015 г., Документальный, природа, фл... skorpionN 1.53 GB
Nat Geo Wild Nat Geo Wild: Национальные парки Америки. Грейт-Смоки-Маунтинс / America's National Parks. Great Smoky Mountain [сезон 1 серия 8] (Jan Haft) [2015 г., Документальный, природа, флора, фауна,... skorpionN 1.51 GB
Nat Geo Wild Nat Geo Wild: Национальные парки Америки. Йеллоустоун / America's National Parks. Yellowstone [сезон 1 серия 6] (Оливер Гётцль / Oliver Goetzl) [2015 г., Документальный, природа, флора, фауна,... skorpionN 1.54 GB
Nat Geo Wild Nat Geo Wild: Национальные парки Америки. Йосемити / America's National Parks. Yosemite [сезон 1 серия 2] (Оливер Гётцль / Oliver Goetzl) [2015 г., Документальный, природа, флора, фауна,... skorpionN 1.59 GB
Nat Geo Wild Nat Geo Wild: Национальные парки Америки. Олимпик / America's National Parks. Olympic [сезон 1 серия 1] (Florian Graner) [2015 г., Документальный, природа, флора, фауна, HDTVRip 720p] skorpionN 1.54 GB
Показать сообщения:    

Текущее время: Сегодня 14:31

Часовой пояс: GMT



Вы не можете начинать темы
Вы не можете отвечать на сообщения
Вы не можете редактировать свои сообщения
Вы не можете удалять свои сообщения
Вы не можете голосовать в опросах
Вы не можете прикреплять файлы к сообщениям
Вы не можете скачивать файлы