Американская революция / The American Revolution [сезон 1 серии 1-3 из 3] (Kevin R. Hershberger) [2014 г., Документальный, история, реконструкция, SATRip]

 
Автор Сообщение

skorpionN ®

Пол:

Стаж: 1 год 8 месяцев

Сообщений: 581



Награды: 4 (Подробнее)

Mega Seeder 3 (Количество: 1) Top Releaser 2 (Количество: 1) Mega Seeder 2 (Количество: 1)
Торрент-статистика

Создавать темы 06-Апр-2015 19:26

[Цитировать]

Американская революция / The American Revolution [сезон 1 серии 1-3 из 3]
Год выпуска: 2014
Страна: США, Discovery for American Heroes Channel (AHC)
Жанр: Документальный, история, реконструкция
Продолжительность: 3x~00:44:02
Перевод: Профессиональный (одноголосый), студия Кирилица, текст читал А.Савенков
Режиссер: Kevin R. Hershberger
В ролях: J.E. Matzer, Douglas E. Bischoff, Paul D'Elia ...
Описание: Небольшая армия ополченцев восстаёт против величайшей империи в истории. В её рядах не только отцы основатели и будущие президенты но и неизвестные герои американской революции. Мужчины и женщины, которые рискнут всем в борьбе за независимость, возьмут свою судьбу в свои руки и создадут нацию.
Список серий:
01. Восстание патриотов / Rise of the Patriots
Когда разногласия между Британией и колониями переросли в войну за независимость, пять безвестных патриотов встали на борьбу за свободу Америки.
02. Империя наносит ответный удар / The Empire Fights Back
Был период, когда независимость Америки висела на волоске. Армия Джорджа Вашингтона оказалась на грани гибели.
03. Возвращение мятежников / Return of the Rebels
Казалось, судьба Американской революции предрешена: британская армия развернула смелую кампанию на юге страны. Но истинный патриоты смогли обратить ход войны.
Качество: SATRip
Формат: AVI
Видео кодек: XviD
Аудио кодек: AC3
Видео: 720x400 25fps ~1950 Kbps
Аудио: AC3 2ch, 48kHz, 192 kbps

Скриншоты


MediaInfo:

Format : AVI
Format/Info : Audio Video Interleave
File size : 677 MiB
Duration : 44mn 1s
Overall bit rate : 2 149 Kbps
Writing application : TMPGEnc Video Mastering Works 5 Version. 5.0.6.38
Writing library : TMPGEnc Video Mastering Works 5 Version. 5.0.6.38
Video
ID : 0
Format : MPEG-4 Visual
Format profile : Advanced Simple@L5
Format settings, BVOP : 2
Format settings, QPel : No
Format settings, GMC : No warppoints
Format settings, Matrix : Default (H.263)
Muxing mode : Packed bitstream
Codec ID : XVID
Codec ID/Hint : XviD
Duration : 44mn 1s
Bit rate : 1 949 Kbps
Width : 720 pixels
Height : 400 pixels
Display aspect ratio : 16:9
Frame rate : 25.000 fps
Color space : YUV
Chroma subsampling : 4:2:0
Bit depth : 8 bits
Scan type : Progressive
Compression mode : Lossy
Bits/(Pixel*Frame) : 0.271
Stream size : 614 MiB (91%)
Writing library : XviD 73
Audio
ID : 1
Format : AC-3
Format/Info : Audio Coding 3
Mode extension : CM (complete main)
Format settings, Endianness : Big
Codec ID : 2000
Duration : 44mn 1s
Bit rate mode : Constant
Bit rate : 192 Kbps
Channel(s) : 2 channels
Channel positions : Front: L R
Sampling rate : 48.0 KHz
Bit depth : 16 bits
Compression mode : Lossy
Stream size : 60.5 MiB (9%)
Alignment : Aligned on interleaves
Interleave, duration : 240 ms (6.00 video frames)
Interleave, preload duration : 224 ms

Внимание! Раздача ведётся путём добавления новых выпусков

Внимание! Раздача ведётся путём добавления новых выпусков; при каждом добавлении создаётся новый торрент. Чтобы начать докачку нового выпуска, пользователям необходимо сделать следующее:
(1) остановить скачивание,
(2) удалить старый торрент у себя из клиента (старые серии удалять не надо),
(3) скачать новый торрент и запустить его у себя в клиенте вместо старого, при этом указать клиенту путь в старую папку куда и должно происходить скачивание новых выпусков.
Ваш клиент при этом должен произвести хеширование (проверку) старой папки (если не производит сам - помогите ему сделать это). В результате он будет докачивать только те выпуски, которых у Вас ещё нет. Старые выпуски при этом не удаляются, а продолжают раздаваться!
Eсли Вы уже удалили старые выпуски, то предотвратить их повторную закачку можно, сняв галочки в соответствующих местах при запуске нового торрента. По возможности, желательно не удалять старые выпуски как можно дольше, чтобы релизёр не только продолжал раздавать старые выпуски, но и смог сконцентрироваться на новых.
Добавлено 03. Возвращение мятежников / Return of the Rebels


Последний раз редактировалось: skorpionN (2015-04-21 11:52), всего редактировалось 6 раз(а)
[Профиль] [ЛС]

KiruhaDelMar

Стаж: 1 год 8 месяцев

Сообщений: 245



Награды: Нет

Торрент-статистика

Создавать темы 06-Апр-2015 20:59 (спустя 1 час 32 минуты)

[Цитировать]

Американскую историю люди не любят, bl вот если б гадость какую то говорили про нее тогда был бы хит
[Профиль] [ЛС]

skorpionN ®

Пол:

Стаж: 1 год 8 месяцев

Сообщений: 581



Награды: 4 (Подробнее)

Mega Seeder 2 (Количество: 1) Mega Seeder 3 (Количество: 1) Mega Seeder 1 (Количество: 1)
Торрент-статистика

Создавать темы 20-Апр-2015 17:57 (спустя 13 дней)

[Цитировать]

Сериал окончен king
[Профиль] [ЛС]
Кто просматривает тему:

Форум Тема Автор Размер
BBC BBC: Искусство Америки / Art of America [серии 1-3 из 3] (Пол Тилзи / Paul Tilzey, Йен Лиз / Ian Leese) [2011 г., Документальный, история искусств, HDTVRip 720p] skorpionN 5.52 GB
Discovery Discovery: Америка: факты и домыслы / America: Facts vs. Fiction [сезон 2 серии 1-12 из 12] [2010 г., Документальный, постановочный, история, SATRip] skorpionN 3.7 GB
Nat Geo Wild Nat Geo Wild: Национальные парки Америки. Арктические врата / America's National Parks. Gates of the Arctic [сезон 1 серия 4] (Uwe Anders) [2015 г., Документальный, природа, флора, фауна,... skorpionN 1.48 GB
Nat Geo Wild Nat Geo Wild: Национальные парки Америки. Большой каньон / America's National Parks. Grand Canyon [сезон 1 серия 5](Henry M. Mix, Yann Sochaczewski) [2015 г., Документальный, природа, фл... skorpionN 1.53 GB
Nat Geo Wild Nat Geo Wild: Национальные парки Америки. Грейт-Смоки-Маунтинс / America's National Parks. Great Smoky Mountain [сезон 1 серия 8] (Jan Haft) [2015 г., Документальный, природа, флора, фауна,... skorpionN 1.51 GB
Nat Geo Wild Nat Geo Wild: Национальные парки Америки. Йеллоустоун / America's National Parks. Yellowstone [сезон 1 серия 6] (Оливер Гётцль / Oliver Goetzl) [2015 г., Документальный, природа, флора, фауна,... skorpionN 1.54 GB
Nat Geo Wild Nat Geo Wild: Национальные парки Америки. Йосемити / America's National Parks. Yosemite [сезон 1 серия 2] (Оливер Гётцль / Oliver Goetzl) [2015 г., Документальный, природа, флора, фауна,... skorpionN 1.59 GB
Nat Geo Wild Nat Geo Wild: Национальные парки Америки. Олимпик / America's National Parks. Olympic [сезон 1 серия 1] (Florian Graner) [2015 г., Документальный, природа, флора, фауна, HDTVRip 720p] skorpionN 1.54 GB
Показать сообщения:    

Текущее время: Сегодня 18:01

Часовой пояс: GMT



Вы не можете начинать темы
Вы не можете отвечать на сообщения
Вы не можете редактировать свои сообщения
Вы не можете удалять свои сообщения
Вы не можете голосовать в опросах
Вы не можете прикреплять файлы к сообщениям
Вы не можете скачивать файлы