Амели / Le fabuleux destin d'Amélie Poulain (2001) BDRip 1080p

 
Автор Сообщение

Russian Mafia ®

Пол:

Стаж: 1 год 8 месяцев

Сообщений: 4252



Награды: 10 (Подробнее)

Top Releaser 2 (Количество: 1) Top Releaser 5 (Количество: 1) Mega Seeder 3 (Количество: 1)
Торрент-статистика

Создавать темы 14-Сен-2016 03:36

[Цитировать]

Информация о фильме
Название: Амели
Оригинальное название: Le Fabuleux destin d'Amélie Poulain
Год выхода: 2001
Жанр: мелодрама, комедия
Режиссер: Жан-Пьер Жёне
В ролях: Одри Тоту, Матьё Кассовиц, Рюфюс, Лорелла Кравотта, Серж Мерлен, Жамель Деббуз, Клотильд Молле, Клер Морье, Изабель Нанти, Доминик Пинон
О фильме: Знаете ли вы, что все события, происходящие в нашем мире, даже самые незначительные, взаимосвязаны самым удивительным и чудесным образом?
Как полет крошечной мухи может вызвать где-то далеко мощный ураган, так и странные и, на первый взгляд, непонятные поступки тихой и одинокой девушки, живущей в мире своих фантазий, могут навсегда изменить жизнь совершенно разных людей, подарив им счастье и раскрасив окружающий мир яркими, головокружительными красками. Эту девушку зовут Амели Пулен.

Выпущено: Claudie Ossard Productions
Продолжительность: 02:02:02
Перевод: Дублированный (лицензия)
Файл
Кодек: x264
Качество: BDRip (источник: Blu-ray Disc)
Видео: 1920x816 (2,35:1), 23.976 fps, 8080 kbps
Аудио #1: AC-3, 6 ch, 384 kbps (Rus)
Аудио #2: AC-3, 6 ch, 640 kbps (Fre)
Субтитры: Русские, Французские, Английские
Скачать: сэмпл
Скриншоты

MI

Общее
Уникальный идентификатор : 210609260265024051684902665702545590188 (0x9E71DE3B35A2A07489185541603887AC)
Полное имя : Amelie.2001.BDRip.1080p.Rus.Fre.mkv
Формат : Matroska
Версия формата : Version 2
Размер файла : 7,76 Гбайт
Продолжительность : 2 ч. 2 м.
Общий поток : 9103 Кбит/сек
Название фильма : Амели / Le fabuleux destin d'Amélie Poulain (2001)
Дата кодирования : UTC 2012-11-13 08:26:25
Программа кодирования : mkvmerge v5.8.0 ('No Sleep / Pillow') built on Sep 2 2012 15:37:04
Библиотека кодирования : libebml v1.2.3 + libmatroska v1.3.0
Видео
Идентификатор : 1
Формат : AVC
Формат/Информация : Advanced Video Codec
Профиль формата : High@L4.1
Параметр CABAC формата : Да
Параметр ReFrames формата : 5 кадров
Идентификатор кодека : V_MPEG4/ISO/AVC
Продолжительность : 2 ч. 2 м.
Битрейт : 8080 Кбит/сек
Ширина : 1920 пикселей
Высота : 816 пикселей
Соотношение сторон : 2,35:1
Частота кадров : 23,976 кадра/сек
Цветовое пространство : YUV
Субдискретизация насыщенности : 4:2:0
Битовая глубина : 8 бит
Тип развёртки : Прогрессивная
Бит/(Пиксели*Кадры) : 0.215
Размер потока : 6,73 Гбайт (87%)
Заголовок : Release by AlexKa
Библиотека кодирования : x264 core 128 r2216 198a7ea
Настройки программы : cabac=1 / ref=5 / deblock=1:-3:-3 / analyse=0x3:0x133 / me=umh / subme=10 / psy=1 / psy_rd=1.00:0.10 / mixed_ref=1 / me_range=32 / chroma_me=1 / trellis=2 / 8x8dct=1 / cqm=0 / deadzone=21,11 / fast_pskip=0 / chroma_qp_offset=-3 / threads=12 / lookahead_threads=2 / sliced_threads=0 / nr=0 / decimate=0 / interlaced=0 / bluray_compat=0 / constrained_intra=0 / bframes=5 / b_pyramid=2 / b_adapt=2 / b_bias=0 / direct=3 / weightb=1 / open_gop=0 / weightp=2 / keyint=240 / keyint_min=23 / scenecut=40 / intra_refresh=0 / rc=2pass / mbtree=0 / bitrate=8080 / ratetol=1.0 / qcomp=0.60 / qpmin=0 / qpmax=69 / qpstep=4 / cplxblur=20.0 / qblur=0.5 / ip_ratio=1.40 / pb_ratio=1.30 / aq=1:0.80
Язык : French
Аудио #1
Идентификатор : 2
Формат : AC-3
Формат/Информация : Audio Coding 3
Расширение режима : CM (complete main)
Идентификатор кодека : A_AC3
Продолжительность : 2 ч. 2 м.
Вид битрейта : Постоянный
Битрейт : 384 Кбит/сек
Каналы : 6 каналов
Расположение каналов : Front: L C R, Side: L R, LFE
Частота : 48,0 КГц
Битовая глубина : 16 бит
Метод сжатия : С потерями
Размер потока : 335 Мбайт (4%)
Заголовок : Rus
Язык : Russian
Аудио #2
Идентификатор : 3
Формат : AC-3
Формат/Информация : Audio Coding 3
Расширение режима : CM (complete main)
Идентификатор кодека : A_AC3
Продолжительность : 2 ч. 2 м.
Вид битрейта : Постоянный
Битрейт : 640 Кбит/сек
Каналы : 6 каналов
Расположение каналов : Front: L C R, Side: L R, LFE
Частота : 48,0 КГц
Битовая глубина : 16 бит
Метод сжатия : С потерями
Размер потока : 559 Мбайт (7%)
Заголовок : Fre
Язык : French
Текст #1
Идентификатор : 4
Формат : UTF-8
Идентификатор кодека : S_TEXT/UTF8
Идентификатор кодека/Информация : UTF-8 Plain Text
Заголовок : Rus
Язык : Russian
Текст #2
Идентификатор : 5
Формат : UTF-8
Идентификатор кодека : S_TEXT/UTF8
Идентификатор кодека/Информация : UTF-8 Plain Text
Заголовок : Fre
Язык : French
Текст #3
Идентификатор : 6
Формат : UTF-8
Идентификатор кодека : S_TEXT/UTF8
Идентификатор кодека/Информация : UTF-8 Plain Text
Заголовок : Eng
Язык : English
Меню
00:00:00.000 : :Chapter 01
00:09:12.885 : :Chapter 02
00:14:22.653 : :Chapter 03
00:21:38.547 : :Chapter 04
00:30:48.513 : :Chapter 05
00:39:06.969 : :Chapter 06
00:47:42.901 : :Chapter 07
00:57:27.944 : :Chapter 08
01:05:12.116 : :Chapter 09
01:11:30.369 : :Chapter 10
01:17:28.393 : :Chapter 11
01:25:36.798 : :Chapter 12
01:32:42.974 : :Chapter 13
01:39:07.650 : :Chapter 14
01:45:19.354 : :Chapter 15
01:51:47.701 : :Chapter 16
02:02:01.897 : :Chapter 17

x264

x264 [info]: frame I:1419 Avg QP:18.07 size:184622
x264 [info]: frame P:37077 Avg QP:20.63 size: 74354
x264 [info]: frame B:137060 Avg QP:22.35 size: 31908
[Профиль] [ЛС]
Показать сообщения:    

Текущее время: Сегодня 22:36

Часовой пояс: GMT



Вы не можете начинать темы
Вы не можете отвечать на сообщения
Вы не можете редактировать свои сообщения
Вы не можете удалять свои сообщения
Вы не можете голосовать в опросах
Вы не можете прикреплять файлы к сообщениям
Вы не можете скачивать файлы