Амарилис / Yellow (2006) WEB-DL 1080p | P

 
Автор Сообщение

BOSS ®

Пол:

Стаж: 3 года 9 месяцев

Сообщений: 11123

Откуда: ODESSA



Награды: 22 (Подробнее)

Top Releaser 2 (Количество: 1) Mega Seeder 4 (Количество: 1) Top Keeper 1 (Количество: 1)
Торрент-статистика

Создавать темы 06-Июл-2018 15:29

[Цитировать]

Информация о фильме
Название: Амарилис
Оригинальное название: Yellow
Год выхода: 2006
Жанр: Драма, мелодрама, музыка
Режиссер: Альфредо Де Вилла
В ролях: Розелин Санчес, Билл Дьюк, Д.Б. Суини, Хайме Тирелли, Салли Диаз, Ричард Петрочелли, Нэнси Миллан, Мэнни Перез, Эрика Мишелс Браун, Хорхе Р. Калдерон, Сэмми Ротиби, Карлтон Уилборн, Рикардо Альварез Сантьяго, Рикардо Альварез, Юджин Котто
О фильме:
Это история Амарилис Кемпос, молодой танцовщицы, чьи доверительные отношения с отцом Франко, который некогда был яркой звездой балета в Нью-Йорке, заставляет ее сменить родной Пуэрто-Рико на Манхэттен для того, чтобы реализовать себя. Амарилис решает достичь славы и успеха в качестве танцовщицы. Не имея приличных предложений о работе, девушка соглашается работать танцовщицей в стриптиз-клубе, где ее ждут новые разочарования, а так же интересные знакомства…

Страна: США, Пуэрто Рико
Студия: Royal McBee, Yellow Productions Corp.
Продолжительность: 01:33:06
Перевод: Профессиональный многоголосый
Файл
Кодек: x264
Качество: WEB-DL 1080p
Видео: MPEG-4 AVC, 11.1 Mбит/с, 1920x1080
Звук #1: AC3, 2 ch, 192 Кбит/с | Rus
Звук #2: EAC3, 2 ch, 224 Кбит/с | Eng
Субтитры: Английские (SRT), английские вшитые на испанскую речь.

Скриншоты

Инфо-файл

Формат : Matroska
Версия формата : Version 2
Размер файла : 7,65 Гбайт
Продолжительность : 1 ч. 33 м.
Режим общего битрейта : Переменный
Общий поток : 11,8 Мбит/сек
Название фильма : Yellow.2006.1080p.AMZN.WEB-DL.by.zzZGVvv
Дата кодирования : UTC 2018-07-06 03:46:27
Программа кодирования : mkvmerge v5.8.0 ('No Sleep / Pillow') built on Sep 2 2012 15:37:04
Библиотека кодирования : libebml v1.2.3 + libmatroska v1.3.0
Attachements : cover.jpg
Видео
Идентификатор : 1
Формат : AVC
Формат/Информация : Advanced Video Codec
Профиль формата : High@L4
Параметр CABAC формата : Да
Параметр ReFrames формата : 4 кадра
Идентификатор кодека : V_MPEG4/ISO/AVC
Продолжительность : 1 ч. 33 м.
Вид битрейта : Переменный
Битрейт : 11,1 Мбит/сек
Максимальный битрейт : 15,0 Мбит/сек
Ширина : 1920 пикселей
Высота : 1080 пикселей
Соотношение сторон : 16:9
Режим частоты кадров : Постоянный
Частота кадров : 23,976 кадра/сек
Цветовое пространство : YUV
Субдискретизация насыщенности : 4:2:0
Битовая глубина : 8 бит
Тип развёртки : Прогрессивная
Бит/(Пиксели*Кадры) : 0.223
Размер потока : 7,23 Гбайт (94%)
Заголовок : Yellow.2006.1080p.AMZN.WEB-DL
Библиотека кодирования : x264 core 148 r2623 d5b2374
Настройки программы : cabac=1 / ref=4 / deblock=1:-1:-1 / analyse=0x3:0x133 / me=umh / subme=9 / psy=1 / psy_rd=1.00:0.15 / mixed_ref=1 / me_range=24 / chroma_me=1 / trellis=2 / 8x8dct=1 / cqm=0 / deadzone=21,11 / fast_pskip=1 / chroma_qp_offset=-3 / threads=34 / lookahead_threads=5 / sliced_threads=0 / nr=150 / decimate=1 / interlaced=0 / bluray_compat=0 / constrained_intra=0 / bframes=8 / b_pyramid=2 / b_adapt=2 / b_bias=0 / direct=3 / weightb=1 / open_gop=0 / weightp=2 / keyint=120 / keyint_min=61 / scenecut=0 / intra_refresh=0 / rc_lookahead=120 / rc=crf / mbtree=1 / crf=18.0 / qcomp=0.60 / qpmin=0 / qpmax=69 / qpstep=4 / vbv_maxrate=15000 / vbv_bufsize=31250 / crf_max=0.0 / nal_hrd=vbr / filler=0 / ip_ratio=1.40 / aq=3:1.00
Язык : English
Default : Да
Forced : Нет
Цветовой диапазон : Limited
Основные цвета : BT.709
Характеристики трансфера : BT.709
Коэффициенты матрицы : BT.709
Аудио #1
Идентификатор : 2
Формат : AC-3
Формат/Информация : Audio Coding 3
Расширение режима : CM (complete main)
Параметр Endianness формата : Big
Идентификатор кодека : A_AC3
Продолжительность : 1 ч. 33 м.
Вид битрейта : Постоянный
Битрейт : 192 Кбит/сек
Каналы : 2 канала
Расположение каналов : Front: L R
Частота : 48,0 КГц
Метод сжатия : С потерями
Размер потока : 128 Мбайт (2%)
Заголовок : MVO
Язык : English
Default : Да
Forced : Нет
Аудио #2
Идентификатор : 3
Формат : E-AC-3
Формат/Информация : Audio Coding 3
Параметр Endianness формата : Big
Идентификатор кодека : A_EAC3
Продолжительность : 1 ч. 33 м.
Вид битрейта : Постоянный
Битрейт : 224 Кбит/сек
Каналы : 2 канала
Расположение каналов : Front: L R
Частота : 48,0 КГц
Метод сжатия : С потерями
Размер потока : 149 Мбайт (2%)
Язык : English
Default : Нет
Forced : Нет
Текст #1
Идентификатор : 4
Формат : UTF-8
Идентификатор кодека : S_TEXT/UTF8
Идентификатор кодека/Информация : UTF-8 Plain Text
Язык : English
Default : Нет
Forced : Нет
Текст #2
Идентификатор : 5
Формат : UTF-8
Идентификатор кодека : S_TEXT/UTF8
Идентификатор кодека/Информация : UTF-8 Plain Text
Заголовок : SDH
Язык : English
Default : Нет
Forced : Нет
[Профиль] [ЛС]
Показать сообщения:    

Текущее время: Сегодня 19:34

Часовой пояс: GMT



Вы не можете начинать темы
Вы не можете отвечать на сообщения
Вы не можете редактировать свои сообщения
Вы не можете удалять свои сообщения
Вы не можете голосовать в опросах
Вы не можете прикреплять файлы к сообщениям
Вы не можете скачивать файлы