Амазония: Инструкция по выживанию / Amazonia (Тьерри Рагоберт / Thierry Ragobert) [2013, Документальный, приключения, семейный, BDRip 720p]

 
Автор Сообщение

TorrentFilm ®

Пол:

Стаж: 2 года 3 месяца

Сообщений: 7773



Награды: Нет

Торрент-статистика

Создавать темы 08-Янв-2015 00:00

[Цитировать]

Амазония: Инструкция по выживаниюAmazonia
Год выпуска: 2013
Страна: Франция, Бразилия
Жанр: документальный, приключения, семейный
Продолжительность: 01:23:05
Перевод: субтитры
Субтитры: русские, итальяские
Режиссер: Тьерри Рагоберт / Thierry Ragobert
Описание: После авиакатастрофы, молодой капуцин, родившийся в неволе, оказывается вдруг беспомощным и в одиночестве в самом сердце тропических лесов Амазонки.
Дезориентированному, ему придется учиться защищать себя и выживать в дикой природе. Столкнуться с тысячью опасностей на зеленых просторах. Он должен адаптироваться к неизвестным, роящимся и кишащим существам, странным, а порой и враждебным в этой вселенной.
Герой приключения столкнется не только со своими товарищами, но и со страшными хищниками, ядовитыми растениями и наводнением в Амазонии. Он проделает долгий путь, что позволит ему воспользоваться своим единственным шансом на выживание: обрести место среди своих ...
Доп. информация: Раздача от DeTorquemada.
Тип релиза: BDRip 720p
Контейнер: MKV
Видео: MPEG-4 AVC, 1280x694 (16:9), 23.976 fps, ~7260 kbps
Аудио : English: DTS 5.1, 1509 kbps, 48 kHz, 24-bit
Формат субтитров: softsub (SRT)
Навигация по главам: есть

Сэмпл

Пример перевода

1
00:14:06,847 --> 00:14:08,056
Амазония...
2
00:14:09,015 --> 00:14:13,895
Предки местных лесов, появились
более 100 миллионов лет назад.
3
00:14:17,774 --> 00:14:21,152
Леса в тумане,
жарко и влажно,
4
00:14:21,945 --> 00:14:23,738
буйные и всегда зеленые.
5
00:14:28,326 --> 00:14:29,828
Рай растений.
6
00:14:31,204 --> 00:14:34,332
Этот лес нуждается в свете
для восстановления.
7
00:14:35,166 --> 00:14:37,168
Через вершины деревьев
8
00:14:37,711 --> 00:14:41,172
каждый день свет с трудом
прокладывает путь к земле,
9
00:14:42,340 --> 00:14:43,717
неся с собой жизнь.
10
00:14:45,302 --> 00:14:50,390
Для молодые побегов
торчащих из земли.
11
00:14:51,224 --> 00:14:53,643
Они должны расти
и стать высокими,
12
00:14:54,644 --> 00:14:57,606
чтобы достигнуть зрелости.
13
00:15:16,958 --> 00:15:20,462
Лес также являются раем воды,
ведь самая длинная река в мире,
14
00:15:20,754 --> 00:15:23,632
Амазонка, течет через него,
15
00:15:23,798 --> 00:15:26,051
вместе с её
бесчисленными притоками.
16
00:15:26,176 --> 00:15:29,346
По её берегам обитают
грозные хищники.
17
00:22:36,606 --> 00:22:38,983
Когда лес и река встречаются
18
00:22:39,650 --> 00:22:42,362
эта вселенная открывает
свое волшебство
19
00:22:43,363 --> 00:22:45,156
и свою тайну.
20
00:26:36,679 --> 00:26:40,224
Лесу необходим свет и вода.

MediaInfo

General
Unique ID : 223886498304524038003343115894460842688 (0xA86EF89B822095F188C021861C0D02C0)
Complete name : F:\Amazonia.2013.720p.BluRay.Eng.HDCLUB.mkv
Format : Matroska
Format version : Version 4 / Version 2
File size : 5.19 GiB
Duration : 1h 23mn
Overall bit rate : 8 947 Kbps
Movie name : Create by DeTorquemada for HDCLUB
Encoded date : UTC 2014-10-18 11:06:10
Writing application : mkvmerge v7.2.0 ('On Every Street') 64bit built on Sep 13 2014 15:52:10
Writing library : libebml v1.3.0 + libmatroska v1.4.1
Video
ID : 1
Format : AVC
Format/Info : Advanced Video Codec
Format profile : High@L4.1
Format settings, CABAC : Yes
Format settings, ReFrames : 9 frames
Codec ID : V_MPEG4/ISO/AVC
Duration : 1h 23mn
Bit rate : 7 260 Kbps
Width : 1 280 pixels
Height : 694 pixels
Display aspect ratio : 1.85:1
Frame rate mode : Constant
Frame rate : 23.976 fps
Color space : YUV
Chroma subsampling : 4:2:0
Bit depth : 8 bits
Scan type : Progressive
Bits/(Pixel*Frame) : 0.341
Stream size : 4.21 GiB (81%)
Title : Амазония / Amazonia (2013) - Release for HDCLUB
Writing library : x264 core 142 r2431 ac76440
Encoding settings : cabac=1 / ref=9 / deblock=1:-3:-3 / analyse=0x3:0x113 / me=umh / subme=10 / psy=1 / psy_rd=1.00:0.00 / mixed_ref=1 / me_range=48 / chroma_me=1 / trellis=2 / 8x8dct=1 / cqm=0 / deadzone=21,11 / fast_pskip=1 / chroma_qp_offset=-2 / threads=6 / lookahead_threads=1 / sliced_threads=0 / nr=0 / decimate=1 / interlaced=0 / bluray_compat=0 / constrained_intra=0 / bframes=3 / b_pyramid=2 / b_adapt=2 / b_bias=0 / direct=1 / weightb=1 / open_gop=0 / weightp=2 / keyint=240 / keyint_min=23 / scenecut=40 / intra_refresh=0 / rc_lookahead=65 / rc=crf / mbtree=0 / crf=18.0 / qcomp=0.60 / qpmin=0 / qpmax=69 / qpstep=4 / vbv_maxrate=50000 / vbv_bufsize=62500 / crf_max=0.0 / nal_hrd=none / filler=0 / ip_ratio=1.40 / pb_ratio=1.30 / aq=1:0.80
Language : French
Default : Yes
Forced : No
Matrix coefficients : BT.709
Audio
ID : 2
Format : DTS
Format/Info : Digital Theater Systems
Mode : 16
Format settings, Endianness : Big
Codec ID : A_DTS
Duration : 1h 23mn
Bit rate mode : Constant
Bit rate : 1 509 Kbps
Channel(s) : 6 channels
Channel positions : Front: L C R, Side: L R, LFE
Sampling rate : 48.0 KHz
Bit depth : 24 bits
Compression mode : Lossy
Stream size : 897 MiB (17%)
Title : 48KHz/24-bit, DTS, 3/2 (L,C,R,l,r) + LFE ch, 1509 kbps
Language : English
Default : Yes
Forced : No
Text #1
ID : 3
Format : UTF-8
Codec ID : S_TEXT/UTF8
Codec ID/Info : UTF-8 Plain Text
Title : Subtitles/Captions
Language : Russian
Default : No
Forced : No
Text #2
ID : 4
Format : UTF-8
Codec ID : S_TEXT/UTF8
Codec ID/Info : UTF-8 Plain Text
Title : Subtitles/Captions
Language : Italian
Default : No
Forced : No
Menu
00:00:00.000 : en:
00:05:23.489 : en:
00:09:52.967 : en:
00:15:39.480 : en:
00:20:38.278 : en:
00:26:19.160 : en:
00:31:19.085 : en:
00:36:45.494 : en:
00:41:14.930 : en:
00:46:26.533 : en:
00:50:15.220 : en:
00:54:13.541 : en:
01:00:09.355 : en:
01:04:35.872 : en:
01:12:46.904 : en:
01:18:21.029 : en:
01:23:05.689 : en:

Скриншоты

[Профиль] [ЛС]
Кто просматривает тему:

Форум Тема Автор Размер
PBS PBS: Тайны Мертвых. Затерянный в Амазонке / Secrets of the Dead. Lost in the Amazon [сезон 11 эпизод 1 ] (Петер Вон Путткамер / Peter Von Puttkamer) [2011 г., Документальный, познавательный, история,... skorpionN 1.47 GB
Классика зарубежного кино Амазония / Schiave bianche: violenza in Amazzonia (1985) DVDRip | A sergej644 1.46 GB
Документальные HD Амазония: Инструкция по выживанию / Amazonia (Тьерри Рагоберт / Thierry Ragobert) [2013, Документальный, приключения, семейный, BDRemux 1080p] TorrentFilm 16.08 GB
Зарубежные Амазония: Инструкция по выживанию / Amazonia (Тьерри Рагоберт / Thierry Ragobert) [2013, Документальный, приключения, семейный, Blu-ray Disc 1080p] BD3D TorrentFilm 34.19 GB
Зарубежные Амазония: Инструкция по выживанию в 3Д / Amazonia 3D (Tьеpри Pагoбеpт / Тhiеrry Rаgobеrt) [2013, Приключения, Семейный, Видовой, BDrip-AVC] VO, Half OverUnder / Вертикальная анаморфная стереопара TorrentFilm 13.83 GB
Зарубежные Амазония: Инструкция по выживанию в 3Д / Amazonia 3D (Тьерри Рагоберт / Thierry Ragobert) [2013, Приключения, Семейный, Видовой, Blu-Ray Remux, 1080p] VO, BD3D TorrentFilm 30.21 GB
Отечественная Классика Достоевский Фёдор Михайлович - Братья Карамазовы (2007) MP3 sergej644 1.42 GB
Фильмы 2011 года Легендарные Амазонки / Legendary Amazons (2011) BDRip | L2 sergej644 2.06 GB
Показать сообщения:    

Текущее время: Сегодня 12:45

Часовой пояс: GMT



Вы не можете начинать темы
Вы не можете отвечать на сообщения
Вы не можете редактировать свои сообщения
Вы не можете удалять свои сообщения
Вы не можете голосовать в опросах
Вы не можете прикреплять файлы к сообщениям
Вы не можете скачивать файлы