Альфа Дог / Alpha Dog (2006) BDRip 1080p | D, A

 
Автор Сообщение

sergej644 ®

Пол:

Стаж: 4 года 11 месяцев

Сообщений: 6043

Откуда: Soviet Union



Награды: Нет

Торрент-статистика

Создавать темы 26-Фев-2015 23:47

[Цитировать]

Год выпуска: 2006
Страна: США
Жанр: драма, криминал, биография
Продолжительность: 01:57:22
Перевод: дублированный, авторский
Субтитры: русские, английские
Режиссёр: Ник Кассаветис
В ролях: Эмиль Хирш, Антон Ельчин, Джастин Тимберлэйк, Бен Фостер, Шон Хэтоси, Брюс Уиллис, Шэрон Стоун, Хезер Уолкист, Аманда Сайфред, Гарри Дин Стэнтон, Доминик Суэйн, Оливия Уайлд, Дэвид Торнтон, Крис Кинкейд, Крис Маркетт, Алекс Кингстон, Винсент Картайзер, Бобби Купер, Эмбер Хёрд, Лукас Хаас, Холт МакКэллани, Мэттью Бэрри, Фернандо Варгас, Алекс Соловитц, Алек Виджил, Фрэнк Кассаветис, Николь Дюбос, Реджина Райс, Лаура Нативо, Джесси Эрвин, Пол Йоханссон, Дэнни А. Абекейзер, Джеймс Молина, Нэнси Де Майо, Ксан Кассаветис, Чак Пачеко, Фрэнк Пелусо, Шера Данезе, Грег Уильямс, Джошуа Альба
Описание: Для подростков элитных районов Лос-Анджелеса, у которых слишком много времени и слишком много денег, унылые дни тянутся один за другим. Они развлекаются тем, что играют в головорезов и поклоняются рэпу, видеоиграм и кинофильмам. Когда не несёшь ни за что ответственности, случиться может всё, что угодно… Наркоторговец Джонни Трулав — самый молодой преступник, оказавшийся у ФБР в розыскном списке № 1. Одно неправильно принятое решение, роковая ошибка, неудачный ход, и жизнь преуспевающего драг-дилера летит под откос. По законам круговой поруки один за другим гибнут все его друзья. Менее чем за сутки Джонни становится легендой криминального мира. Ему инкриминируют жестокое убийство 15-летнего подростка...

Качество: BDRip 1080p
Формат: MKV
Видео кодек: H.264
Аудио кодек: DTS
Видео: 7018 Кбит/с, 1920x818, 24 кадра/с, 0.186 bpp
Аудио 1: русский, DTS, 755 kbps, 6 ch, 48 kHz [дублированный]
Аудио 2: русский, DTS, 1509 kbps, 6 ch, 48 kHz [авторский, Юрий Немахов]
Аудио 3: английский, DTS, 1509 kbps, 6 ch, 48 kHz [оригинал]
Имеются неименованные главы/чаптеры.

Кванты и MediaInfo

frame I:1203 Avg QP:14.28 size:142544
frame P:33427 Avg QP:15.09 size: 65221
frame B:134400 Avg QP:16.67 size: 30036
Общее
Уникальный идентификатор : 205982032754940298777869851368212789588 (0x9AF6B24D17DD53B6AF32A634A279F954)
Полное имя : D:VideoAlfa Dog.2006.BDRip.1080p.mkv
Формат : Matroska
Версия формата : Version 4 / Version 2
Размер файла : 9,03 Гбайт
Продолжительность : 1 ч. 57 м.
Общий поток : 11,0 Мбит/сек
Дата кодирования : UTC 2015-02-26 12:22:30
Программа кодирования : mkvmerge v7.6.0 ('Garden of Dreams') 64bit built on Feb 8 2015 13:04:34
Библиотека кодирования : libebml v1.3.1 + libmatroska v1.4.2
_STATISTICS_WRITING_APP : mkvmerge v7.6.0 ('Garden of Dreams') 64bit built on Feb 8 2015 13:04:34
_STATISTICS_WRITING_DATE_UTC : 2015-02-26 12:22:30
_STATISTICS_TAGS : BPS DURATION NUMBER_OF_FRAMES NUMBER_OF_BYTES
DURATION : 01:56:20.384000000
NUMBER_OF_FRAMES : 654411
NUMBER_OF_BYTES : 1316675828
Видео
Идентификатор : 1
Формат : AVC
Формат/Информация : Advanced Video Codec
Профиль формата : High@L4.1
Параметр CABAC формата : Да
Параметр ReFrames формата : 4 кадра
Идентификатор кодека : V_MPEG4/ISO/AVC
Продолжительность : 1 ч. 57 м.
Битрейт : 7018 Кбит/сек
Ширина : 1920 пикселей
Высота : 818 пикселей
Соотношение сторон : 2,35:1
Режим частоты кадров : Постоянный
Частота кадров : 24,000 кадра/сек
Цветовое пространство : YUV
Субдискретизация насыщенности : 4:2:0
Битовая глубина : 8 бит
Тип развёртки : Прогрессивная
Бит/(Пиксели*Кадры) : 0.186
Размер потока : 5,75 Гбайт (64%)
Заголовок : BDRip -- STarankov
Библиотека кодирования : x264 core 142 r2431 ac76440
Настройки программы : cabac=1 / ref=4 / deblock=1:-1:-1 / analyse=0x3:0x113 / me=umh / subme=9 / psy=1 / psy_rd=1.00:0.15 / mixed_ref=1 / me_range=32 / chroma_me=1 / trellis=2 / 8x8dct=1 / cqm=0 / deadzone=21,11 / fast_pskip=1 / chroma_qp_offset=-3 / threads=6 / lookahead_threads=1 / sliced_threads=0 / nr=0 / decimate=1 / interlaced=0 / bluray_compat=0 / constrained_intra=0 / bframes=8 / b_pyramid=2 / b_adapt=2 / b_bias=0 / direct=3 / weightb=1 / open_gop=0 / weightp=2 / keyint=230 / keyint_min=23 / scenecut=40 / intra_refresh=0 / rc_lookahead=40 / rc=crf / mbtree=0 / crf=19.0 / qcomp=0.60 / qpmin=0 / qpmax=69 / qpstep=4 / vbv_maxrate=40000 / vbv_bufsize=50000 / crf_max=0.0 / nal_hrd=none / filler=0 / ip_ratio=1.40 / pb_ratio=1.30 / aq=1:1.00
Язык : English
Default : Да
Forced : Нет
DURATION : 01:57:22.917000000
NUMBER_OF_FRAMES : 169030
NUMBER_OF_BYTES : 6388484032
_STATISTICS_WRITING_APP : mkvmerge v7.6.0 ('Garden of Dreams') 64bit built on Feb 8 2015 13:04:34
_STATISTICS_WRITING_DATE_UTC : 2015-02-26 12:22:30
_STATISTICS_TAGS : BPS DURATION NUMBER_OF_FRAMES NUMBER_OF_BYTES
Аудио #1
Идентификатор : 2
Формат : DTS
Формат/Информация : Digital Theater Systems
Режим : 16
Параметр Endianness формата : Big
Идентификатор кодека : A_DTS
Продолжительность : 1 ч. 57 м.
Вид битрейта : Постоянный
Битрейт : 755 Кбит/сек
Каналы : 6 каналов
Расположение каналов : Front: L C R, Side: L R, LFE
Частота : 48,0 КГц
Битовая глубина : 16 бит
Метод сжатия : С потерями
Размер потока : 633 Мбайт (7%)
Заголовок : DUB (R5)
Язык : Russian
Default : Да
Forced : Нет
Аудио #2
Идентификатор : 3
Формат : DTS
Формат/Информация : Digital Theater Systems
Режим : 16
Параметр Endianness формата : Big
Идентификатор кодека : A_DTS
Продолжительность : 1 ч. 57 м.
Вид битрейта : Постоянный
Битрейт : 1509 Кбит/сек
Каналы : 6 каналов
Расположение каналов : Front: L C R, Side: L R, LFE
Частота : 48,0 КГц
Битовая глубина : 16 бит
Метод сжатия : С потерями
Размер потока : 1,24 Гбайт (14%)
Заголовок : AVO (Юрий Немахов)
Язык : Russian
Default : Нет
Forced : Нет
Аудио #3
Идентификатор : 4
Формат : DTS
Формат/Информация : Digital Theater Systems
Режим : 16
Параметр Endianness формата : Big
Идентификатор кодека : A_DTS
Продолжительность : 1 ч. 57 м.
Вид битрейта : Постоянный
Битрейт : 1509 Кбит/сек
Каналы : 6 каналов
Расположение каналов : Front: L C R, Side: L R, LFE
Частота : 48,0 КГц
Битовая глубина : 16 бит
Метод сжатия : С потерями
Размер потока : 1,24 Гбайт (14%)
Заголовок : Original
Язык : English
Default : Нет
Forced : Нет
Текст #1
Идентификатор : 5
Формат : UTF-8
Идентификатор кодека : S_TEXT/UTF8
Идентификатор кодека/Информация : UTF-8 Plain Text
Заголовок : русский
Язык : Russian
Default : Нет
Forced : Нет
Текст #2
Идентификатор : 6
Формат : UTF-8
Идентификатор кодека : S_TEXT/UTF8
Идентификатор кодека/Информация : UTF-8 Plain Text
Заголовок : английский
Default : Нет
Forced : Нет
Меню
00:00:00.000 : :Chapter 01
00:07:47.458 : :Chapter 02
00:17:45.333 : :Chapter 03
00:32:01.458 : :Chapter 04
00:39:07.416 : :Chapter 05
00:50:20.500 : :Chapter 06
00:58:14.416 : :Chapter 07
01:10:18.750 : :Chapter 08
01:19:45.957 : :Chapter 09
01:30:03.166 : :Chapter 10
01:41:59.500 : :Chapter 11
01:52:55.000 : :Chapter 12

Скриншоты

[Профиль] [ЛС]
Показать сообщения:    

Текущее время: Сегодня 22:32

Часовой пояс: GMT



Вы не можете начинать темы
Вы не можете отвечать на сообщения
Вы не можете редактировать свои сообщения
Вы не можете удалять свои сообщения
Вы не можете голосовать в опросах
Вы не можете прикреплять файлы к сообщениям
Вы не можете скачивать файлы