Альтиплано / Altiplano (Петер Бросенс / Peter Brosens, Джессика Хоуп Вудворт / Jessica Woodworth) [2009, Бельгия, Германия, Нидерланды, драма, DVDRip] Sub Rus

 
Автор Сообщение

TorrentFilm ®

Пол:

Стаж: 2 года

Сообщений: 7741



Награды: Нет

Торрент-статистика

Создавать темы 20-Мар-2016 00:08

[Цитировать]

Альтиплано / Altiplano
Страна: Бельгия, Германия, Нидерланды
Жанр: драма
Год выпуска: 2009
Продолжительность: 01:49
Перевод: Субтитры 1111111..., Radi0war
Cубтитры: русские
Оригинальная аудиодорожка: испанский, кечуа, французский, английский, персидский
Режиссер: Петер Бросенс, Джессика Хоуп Вудворт / Peter Brosens, Jessica Woodworth
В ролях: Магали Сольер
Йасмин Табатабай
Оливье Гурме
Описание: Лирическая трагедия о самопожертвовании и искуплении вины. Женщина - военный фотограф и ее муж - врач оказываются в затерянной высоко в Андах деревушке, охваченной бунтом местного населения. Земля индейцев теперь отравлена из-за работ в близлежащих шахтах.
Тяжелая красота горных ландшафтов и религиозно-мистические видения сопровождают переживания героев фильма в их пути к обретению покоя.
Источник: KG (спасибо varfilmKG)
Сэмпл: http://sendfile.su/1215397
Качество видео: DVDRip
Формат видео: AVI
Видео: 640x336 (1.90:1), 25 fps, XviD MPEG-4 ~1341 kbps avg, 0.25 bit/pixel
Аудио: 48 kHz, AC3 Dolby Digital, 3/2 (L,C,R,l,r) + LFE ch, ~448 kbps
Формат субтитров: softsub (SRT)

Пример субтитров

33
00:09:10,720 --> 00:09:14,480
Независимые фотографы - наша единственная надежда, Грейс,
34
00:09:14,640 --> 00:09:17,000
против стандартизации изображения.
35
00:09:17,160 --> 00:09:19,960
Омар умер только потому, что я держала камеру.
36
00:09:20,120 --> 00:09:22,600
Эта фотография искупает его жертву.
37
00:09:22,760 --> 00:09:26,760
Поэтому ты должна принять приз и дать фотографии жизнь.

MediaInfo

Video #0
ID : 0
Format : MPEG-4 Visual
Format profile : Advanced Simple@L5
Format settings, BVOP : 2
Format settings, QPel : No
Format settings, GMC : No warppoints
Format settings, Matrix : Default (H.263)
Muxing mode : Packed bitstream
Codec ID : XVID
Codec ID/Hint : XviD
Duration : 54mn 22s
Bit rate : 1 341 Kbps
Width : 640 pixels
Height : 336 pixels
Display aspect ratio : 1.905
Frame rate : 25.000 fps
Color space : YUV
Chroma subsampling : 4:2:0
Bit depth : 8 bits
Scan type : Progressive
Compression mode : Lossy
Bits/(Pixel*Frame) : 0.249
Stream size : 522 MiB (75%)
Writing library : XviD 1.2.1 (UTC 2008-12-04)
Audio #1
ID : 1
Format : AC-3
Format/Info : Audio Coding 3
Mode extension : CM (complete main)
Format settings, Endianness : Big
Codec ID : 2000
Duration : 54mn 21s
Bit rate mode : Constant
Bit rate : 448 Kbps
Channel(s) : 6 channels
Channel positions : Front: L C R, Side: L R, LFE
Sampling rate : 48.0 KHz
Compression mode : Lossy
Delay relative to video : 500ms
Stream size : 174 MiB (25%)
Alignment : Split accross interleaves
Interleave, duration : 40 ms (1.00 video frame)
Interleave, preload duration : 500 ms

Скриншот c названием фильма

Скриншоты







[Профиль] [ЛС]

Создавать темы 12-Июн-2016 07:56 (спустя 2 месяца 23 дня)

Топик был перенесен из форума Фильмы 2011 года в форум Фильмы 2009 года
Russian Mafia
 
Показать сообщения:    

Текущее время: Сегодня 08:12

Часовой пояс: GMT



Вы не можете начинать темы
Вы не можете отвечать на сообщения
Вы не можете редактировать свои сообщения
Вы не можете удалять свои сообщения
Вы не можете голосовать в опросах
Вы не можете прикреплять файлы к сообщениям
Вы не можете скачивать файлы