Альпы с высоты: Южные Альпы / Die Alpen von oben: Südalpen (Лиза Эдер / Lisa Eder, Кристиан Шидловски / Christian Schidlowski) [2011, Документальный, Blu-ray Disc 1080i (Custom)]

 
Автор Сообщение

TorrentFilm ®

Пол:

Стаж: 2 года

Сообщений: 7741



Награды: Нет

Торрент-статистика

Создавать темы 08-Июл-2015 00:07

[Цитировать]

Альпы с высоты: Южные Альпы / Die Alpen von oben: Südalpen
-Год выпуска: 2011
Страна: Германия
Жанр: Документальный
Продолжительность: 5х ~ 00:52:00
Перевод: Профессиональный (двухголосый закадровый)
Доп. инфо о переводе: ТК "Телепутешествие"
Режиссер: Лиза Эдер / Lisa Eder, Кристиан Шидловски / Christian Schidlowski и др.
Русские субтитры: нет-Описание: В этом выпуске Значимых гор Европы: Альпы, с новой точки зрения. Уникальные кадры представят вам Альпы так, как у вас не получиться их увидеть.-Список серий:
1. От Караванкен в Грац
2. От Грац в Зальцбург
3. От реки Инн в Этцталь
4. От Веноста до озера Гарда
5. От Энгадин до Цюрихского озера-Тип релиза: Blu-ray Disc
Контейнер: BDMV
Видео: MPEG-4 AVC Video / 20917 kbps / 1080i / 25 fps / 16:9 / High Profile 4.1
Аудио 1: Russian / Dolby Digital Audio / 2.0 / 48 kHz / 192 kbps / DN -4dB
Аудио 2: German / DTS-HD Master Audio / 2.0 / 48 kHz / 1712 kbps / 16-bit (DTS Core: 2.0 / 48 kHz / 1509 kbps / 16-bit)
Субтитры: нет-Сэмпл-Релиз: -

BDInfo

Disc Title: DIE_ALPEN_VON_OBEN_DIE_SUEDALPEN_2011_HDCLUBDisc Size: 47 805 032 643 bytesProtection: AACSBD-Java: NoExtras: 50Hz ContentBDInfo: 0.5.8
Notes:
BDINFO HOME: Cinema Squid http://www.cinemasquid.com/blu-ray/tools/bdinfo
INCLUDES FORUMS REPORT FOR: AVS Forum Blu-ray Audio and Video Specifications Thread http://www.avsforum.com/avs-vb/showthread.php?t=1155731
********************PLAYLIST: 01005.MPLS********************
Total   Video
Title                                                           Codec   Length  Movie Size      Disc Size       Bitrate Bitrate Main Audio Track                          Secondary Audio Track
-----                                                           ------  ------- --------------  --------------  ------- ------- ------------------                        ---------------------
01005.MPLS                                                      AVC     0:52:07 9 447 278 592   47 805 032 643  24,17   20,91   DD AC3 2.0 192Kbps
DISC INFO:
Disc Title:     DIE_ALPEN_VON_OBEN_DIE_SUEDALPEN_2011_HDCLUB
Disc Size:      47 805 032 643 bytes
Protection:     AACS
BD-Java:        No
Extras:         50Hz Content
BDInfo:         0.5.8
PLAYLIST REPORT:
Name:                   01005.MPLS
Length:                 0:52:07.560 (h:m:s.ms)
Size:                   9 447 278 592 bytes
Total Bitrate:          24,17 Mbps
VIDEO:
Codec                   Bitrate             Description
-----                   -------             -----------
MPEG-4 AVC Video        20909 kbps          1080i / 25 fps / 16:9 / High Profile 4.1
AUDIO:
Codec                           Language        Bitrate         Description
-----                           --------        -------         -----------
Dolby Digital Audio             Russian         192 kbps        2.0 / 48 kHz / 192 kbps / DN -4dB
DTS-HD Master Audio             German          1711 kbps       2.0 / 48 kHz / 1711 kbps / 16-bit (DTS Core: 2.0 / 48 kHz / 1509 kbps / 16-bit)
FILES:
Name            Time In         Length          Size            Total Bitrate
----            -------         ------          ----            -------------
00005.M2TS      0:00:00.000     0:52:06.480     9 447 008 256   24 173
00007.M2TS      0:52:06.480     0:00:01.080     270 336         2 002
CHAPTERS:
Number          Time In         Length          Avg Video Rate  Max 1-Sec Rate  Max 1-Sec Time  Max 5-Sec Rate  Max 5-Sec Time  Max 10Sec Rate  Max 10Sec Time  Avg Frame Size  Max Frame Size  Max Frame Time
------          -------         ------          --------------  --------------  --------------  --------------  --------------  --------------  --------------  --------------  --------------  --------------
1               0:00:00.000     0:01:11.679     20 482 kbps     30 089 kbps     00:00:10.840    23 018 kbps     00:00:09.359    22 282 kbps     00:00:02.240    102 409 bytes   585 090 bytes   00:00:22.760
2               0:01:11.679     0:06:13.119     20 649 kbps     32 247 kbps     00:04:08.760    23 403 kbps     00:04:05.760    22 320 kbps     00:07:13.680    103 245 bytes   1 094 618 bytes 00:01:14.039
3               0:07:24.800     0:07:13.400     20 997 kbps     30 105 kbps     00:10:42.640    23 097 kbps     00:07:54.160    22 073 kbps     00:07:49.120    104 987 bytes   606 959 bytes   00:07:35.200
4               0:14:38.200     0:05:44.359     20 990 kbps     31 159 kbps     00:17:19.840    23 097 kbps     00:16:50.120    22 049 kbps     00:17:10.280    104 952 bytes   556 198 bytes   00:17:13.160
5               0:20:22.560     0:04:56.800     21 001 kbps     34 939 kbps     00:24:14.360    24 161 kbps     00:24:13.040    22 464 kbps     00:24:07.800    105 006 bytes   535 487 bytes   00:20:26.080
6               0:25:19.360     0:05:17.559     20 824 kbps     29 487 kbps     00:26:55.520    23 306 kbps     00:26:40.040    22 045 kbps     00:28:18.120    104 120 bytes   593 318 bytes   00:29:39.360
7               0:30:36.920     0:09:02.880     21 030 kbps     41 377 kbps     00:38:07.680    25 519 kbps     00:38:03.880    23 380 kbps     00:37:58.920    105 149 bytes   661 638 bytes   00:35:55.680
8               0:39:39.800     0:06:03.199     20 997 kbps     30 821 kbps     00:39:56.360    23 329 kbps     00:41:40.480    22 013 kbps     00:45:23.960    104 983 bytes   638 216 bytes   00:39:54.480
9               0:45:43.000     0:06:23.480     20 875 kbps     31 955 kbps     00:45:54.800    23 316 kbps     00:45:50.840    22 254 kbps     00:45:46.240    104 387 bytes   648 758 bytes   00:45:48.200
10              0:52:06.480     0:00:01.079     52 kbps         56 kbps         00:52:06.480    0 kbps          00:00:00.000    0 kbps          00:00:00.000    279 bytes       784 bytes       00:52:07.080
STREAM DIAGNOSTICS:
File            PID             Type            Codec           Language                Seconds                 Bitrate                 Bytes           Packets
----            ---             ----            -----           --------                --------------          --------------          -------------   -----
00005.M2TS      4113 (0x1011)   0x1B            AVC                                     3126,360                20 917                  8 174 396 002   44 471 707
00005.M2TS      4352 (0x1100)   0x81            AC3             rus (Russian)           3126,360                192                     75 035 904      488 515
00005.M2TS      4353 (0x1101)   0x86            DTS-HD MA       deu (German)            3126,360                1 712                   668 973 688     4 122 145
00007.M2TS      4113 (0x1011)   0x1B            AVC                                     1,000                   62                      7 762           51
00007.M2TS      4352 (0x1100)   0x86            DTS-HD MA       rus (Russian)           1,000                   1 644                   205 524         1 287
QUICK SUMMARY:
Disc Title: DIE_ALPEN_VON_OBEN_DIE_SUEDALPEN_2011_HDCLUBDisc Size: 47 805 032 643 bytesProtection: AACSBD-Java: NoPlaylist: 01005.MPLSSize: 9 447 278 592 bytesLength: 0:52:07.560Total Bitrate: 24,17 MbpsVideo: MPEG-4 AVC Video / 20909 kbps / 1080i / 25 fps / 16:9 / High Profile 4.1Audio: Russian / Dolby Digital Audio / 2.0 / 48 kHz / 192 kbps / DN -4dBAudio: German / DTS-HD Master Audio / 2.0 / 48 kHz / 1711 kbps / 16-bit (DTS Core: 2.0 / 48 kHz / 1509 kbps / 16-bit)
********************PLAYLIST: 01003.MPLS********************
Total   Video
Title                                                           Codec   Length  Movie Size      Disc Size       Bitrate Bitrate Main Audio Track                          Secondary Audio Track
-----                                                           ------  ------- --------------  --------------  ------- ------- ------------------                        ---------------------
01003.MPLS                                                      AVC     0:52:07 9 462 829 056   47 805 032 643  24,21   20,94   DD AC3 2.0 192Kbps
DISC INFO:
Disc Title:     DIE_ALPEN_VON_OBEN_DIE_SUEDALPEN_2011_HDCLUB
Disc Size:      47 805 032 643 bytes
Protection:     AACS
BD-Java:        No
Extras:         50Hz Content
BDInfo:         0.5.8
PLAYLIST REPORT:
Name:                   01003.MPLS
Length:                 0:52:07.440 (h:m:s.ms)
Size:                   9 462 829 056 bytes
Total Bitrate:          24,21 Mbps
VIDEO:
Codec                   Bitrate             Description
-----                   -------             -----------
MPEG-4 AVC Video        20943 kbps          1080i / 25 fps / 16:9 / High Profile 4.1
AUDIO:
Codec                           Language        Bitrate         Description
-----                           --------        -------         -----------
Dolby Digital Audio             Russian         192 kbps        2.0 / 48 kHz / 192 kbps / DN -4dB
DTS-HD Master Audio             German          1712 kbps       2.0 / 48 kHz / 1712 kbps / 16-bit (DTS Core: 2.0 / 48 kHz / 1509 kbps / 16-bit)
FILES:
Name            Time In         Length          Size            Total Bitrate
----            -------         ------          ----            -------------
00003.M2TS      0:00:00.000     0:52:06.360     9 462 558 720   24 214
00007.M2TS      0:52:06.360     0:00:01.080     270 336         2 002
CHAPTERS:
Number          Time In         Length          Avg Video Rate  Max 1-Sec Rate  Max 1-Sec Time  Max 5-Sec Rate  Max 5-Sec Time  Max 10Sec Rate  Max 10Sec Time  Avg Frame Size  Max Frame Size  Max Frame Time
------          -------         ------          --------------  --------------  --------------  --------------  --------------  --------------  --------------  --------------  --------------  --------------
1               0:00:00.000     0:01:12.039     20 457 kbps     31 060 kbps     00:01:02.640    23 559 kbps     00:00:58.600    22 362 kbps     00:00:53.840    102 284 bytes   602 616 bytes   00:00:23.760
2               0:01:12.039     0:06:11.240     21 001 kbps     30 594 kbps     00:01:12.679    23 156 kbps     00:05:50.159    22 114 kbps     00:03:57.400    105 007 bytes   1 010 716 bytes 00:01:14.640
3               0:07:23.280     0:05:57.080     20 973 kbps     32 485 kbps     00:10:48.880    23 238 kbps     00:08:14.880    22 086 kbps     00:09:54.400    104 865 bytes   526 454 bytes   00:09:01.080
4               0:13:20.360     0:07:02.120     21 006 kbps     29 872 kbps     00:13:31.200    23 223 kbps     00:16:05.640    22 157 kbps     00:16:41.960    105 030 bytes   585 163 bytes   00:13:29.520
5               0:20:22.480     0:06:29.599     20 995 kbps     30 881 kbps     00:20:34.640    23 264 kbps     00:26:20.680    22 127 kbps     00:25:31.200    104 976 bytes   655 613 bytes   00:20:32.880
6               0:26:52.080     0:06:35.760     20 833 kbps     30 041 kbps     00:30:46.400    23 107 kbps     00:31:35.560    22 159 kbps     00:32:13.800    104 164 bytes   635 737 bytes   00:30:32.720
7               0:33:27.840     0:05:37.000     21 010 kbps     34 736 kbps     00:37:11.120    23 415 kbps     00:33:59.720    22 234 kbps     00:33:43.160    105 052 bytes   660 781 bytes   00:33:59.880
8               0:39:04.840     0:05:54.400     20 987 kbps     34 387 kbps     00:44:22.520    23 670 kbps     00:42:19.360    22 557 kbps     00:43:10.680    104 937 bytes   675 740 bytes   00:40:23.360
9               0:44:59.240     0:07:07.119     20 905 kbps     30 389 kbps     00:45:59.520    24 198 kbps     00:45:58.120    22 477 kbps     00:45:53.040    104 535 bytes   579 234 bytes   00:48:40.880
10              0:52:06.360     0:00:01.079     52 kbps         56 kbps         00:52:06.360    0 kbps          00:00:00.000    0 kbps          00:00:00.000    279 bytes       784 bytes       00:52:06.960
STREAM DIAGNOSTICS:
File            PID             Type            Codec           Language                Seconds                 Bitrate                 Bytes           Packets
----            ---             ----            -----           --------                --------------          --------------          -------------   -----
00003.M2TS      4113 (0x1011)   0x1B            AVC                                     3126,240                20 951                  8 187 300 890   44 541 790
00003.M2TS      4352 (0x1100)   0x81            AC3             rus (Russian)           3126,240                192                     75 032 832      488 495
00003.M2TS      4353 (0x1101)   0x86            DTS-HD MA       deu (German)            3126,240                1 712                   669 126 028     4 133 056
00007.M2TS      4113 (0x1011)   0x1B            AVC                                     1,000                   62                      7 762           51
00007.M2TS      4352 (0x1100)   0x86            DTS-HD MA       rus (Russian)           1,000                   1 644                   205 524         1 287
QUICK SUMMARY:
Disc Title: DIE_ALPEN_VON_OBEN_DIE_SUEDALPEN_2011_HDCLUBDisc Size: 47 805 032 643 bytesProtection: AACSBD-Java: NoPlaylist: 01003.MPLSSize: 9 462 829 056 bytesLength: 0:52:07.440Total Bitrate: 24,21 MbpsVideo: MPEG-4 AVC Video / 20943 kbps / 1080i / 25 fps / 16:9 / High Profile 4.1Audio: Russian / Dolby Digital Audio / 2.0 / 48 kHz / 192 kbps / DN -4dBAudio: German / DTS-HD Master Audio / 2.0 / 48 kHz / 1712 kbps / 16-bit (DTS Core: 2.0 / 48 kHz / 1509 kbps / 16-bit)
********************PLAYLIST: 00005.MPLS********************
Total   Video
Title                                                           Codec   Length  Movie Size      Disc Size       Bitrate Bitrate Main Audio Track                          Secondary Audio Track
-----                                                           ------  ------- --------------  --------------  ------- ------- ------------------                        ---------------------
00005.MPLS                                                      AVC     0:52:06 9 447 008 256   47 805 032 643  24,17   20,92   DD AC3 2.0 192Kbps
DISC INFO:
Disc Title:     DIE_ALPEN_VON_OBEN_DIE_SUEDALPEN_2011_HDCLUB
Disc Size:      47 805 032 643 bytes
Protection:     AACS
BD-Java:        No
Extras:         50Hz Content
BDInfo:         0.5.8
PLAYLIST REPORT:
Name:                   00005.MPLS
Length:                 0:52:06.480 (h:m:s.ms)
Size:                   9 447 008 256 bytes
Total Bitrate:          24,17 Mbps
VIDEO:
Codec                   Bitrate             Description
-----                   -------             -----------
MPEG-4 AVC Video        20917 kbps          1080i / 25 fps / 16:9 / High Profile 4.1
AUDIO:
Codec                           Language        Bitrate         Description
-----                           --------        -------         -----------
Dolby Digital Audio             Russian         192 kbps        2.0 / 48 kHz / 192 kbps / DN -4dB
DTS-HD Master Audio             German          1712 kbps       2.0 / 48 kHz / 1712 kbps / 16-bit (DTS Core: 2.0 / 48 kHz / 1509 kbps / 16-bit)
FILES:
Name            Time In         Length          Size            Total Bitrate
----            -------         ------          ----            -------------
00005.M2TS      0:00:00.000     0:52:06.480     9 447 008 256   24 173
CHAPTERS:
Number          Time In         Length          Avg Video Rate  Max 1-Sec Rate  Max 1-Sec Time  Max 5-Sec Rate  Max 5-Sec Time  Max 10Sec Rate  Max 10Sec Time  Avg Frame Size  Max Frame Size  Max Frame Time
------          -------         ------          --------------  --------------  --------------  --------------  --------------  --------------  --------------  --------------  --------------  --------------
1               0:00:00.000     0:52:06.480     20 917 kbps     41 377 kbps     00:38:07.680    25 519 kbps     00:38:03.880    23 380 kbps     00:37:58.920    104 585 bytes   1 094 618 bytes 00:01:14.039
STREAM DIAGNOSTICS:
File            PID             Type            Codec           Language                Seconds                 Bitrate                 Bytes           Packets
----            ---             ----            -----           --------                --------------          --------------          -------------   -----
00005.M2TS      4113 (0x1011)   0x1B            AVC                                     3126,360                20 917                  8 174 396 002   44 471 707
00005.M2TS      4352 (0x1100)   0x81            AC3             rus (Russian)           3126,360                192                     75 035 904      488 515
00005.M2TS      4353 (0x1101)   0x86            DTS-HD MA       deu (German)            3126,360                1 712                   668 973 688     4 122 145
QUICK SUMMARY:
Disc Title: DIE_ALPEN_VON_OBEN_DIE_SUEDALPEN_2011_HDCLUBDisc Size: 47 805 032 643 bytesProtection: AACSBD-Java: NoPlaylist: 00005.MPLSSize: 9 447 008 256 bytesLength: 0:52:06.480Total Bitrate: 24,17 MbpsVideo: MPEG-4 AVC Video / 20917 kbps / 1080i / 25 fps / 16:9 / High Profile 4.1Audio: Russian / Dolby Digital Audio / 2.0 / 48 kHz / 192 kbps / DN -4dBAudio: German / DTS-HD Master Audio / 2.0 / 48 kHz / 1712 kbps / 16-bit (DTS Core: 2.0 / 48 kHz / 1509 kbps / 16-bit)
********************PLAYLIST: 00003.MPLS********************
Total   Video
Title                                                           Codec   Length  Movie Size      Disc Size       Bitrate Bitrate Main Audio Track                          Secondary Audio Track
-----                                                           ------  ------- --------------  --------------  ------- ------- ------------------                        ---------------------
00003.MPLS                                                      AVC     0:52:06 9 462 558 720   47 805 032 643  24,21   20,95   DD AC3 2.0 192Kbps
DISC INFO:
Disc Title:     DIE_ALPEN_VON_OBEN_DIE_SUEDALPEN_2011_HDCLUB
Disc Size:      47 805 032 643 bytes
Protection:     AACS
BD-Java:        No
Extras:         50Hz Content
BDInfo:         0.5.8
PLAYLIST REPORT:
Name:                   00003.MPLS
Length:                 0:52:06.360 (h:m:s.ms)
Size:                   9 462 558 720 bytes
Total Bitrate:          24,21 Mbps
VIDEO:
Codec                   Bitrate             Description
-----                   -------             -----------
MPEG-4 AVC Video        20950 kbps          1080i / 25 fps / 16:9 / High Profile 4.1
AUDIO:
Codec                           Language        Bitrate         Description
-----                           --------        -------         -----------
Dolby Digital Audio             Russian         192 kbps        2.0 / 48 kHz / 192 kbps / DN -4dB
DTS-HD Master Audio             German          1712 kbps       2.0 / 48 kHz / 1712 kbps / 16-bit (DTS Core: 2.0 / 48 kHz / 1509 kbps / 16-bit)
FILES:
Name            Time In         Length          Size            Total Bitrate
----            -------         ------          ----            -------------
00003.M2TS      0:00:00.000     0:52:06.360     9 462 558 720   24 214
CHAPTERS:
Number          Time In         Length          Avg Video Rate  Max 1-Sec Rate  Max 1-Sec Time  Max 5-Sec Rate  Max 5-Sec Time  Max 10Sec Rate  Max 10Sec Time  Avg Frame Size  Max Frame Size  Max Frame Time
------          -------         ------          --------------  --------------  --------------  --------------  --------------  --------------  --------------  --------------  --------------  --------------
1               0:00:00.000     0:52:06.360     20 950 kbps     34 736 kbps     00:37:11.120    24 198 kbps     00:45:58.120    22 557 kbps     00:43:10.680    104 755 bytes   1 010 716 bytes 00:01:14.640
STREAM DIAGNOSTICS:
File            PID             Type            Codec           Language                Seconds                 Bitrate                 Bytes           Packets
----            ---             ----            -----           --------                --------------          --------------          -------------   -----
00003.M2TS      4113 (0x1011)   0x1B            AVC                                     3126,240                20 951                  8 187 300 890   44 541 790
00003.M2TS      4352 (0x1100)   0x81            AC3             rus (Russian)           3126,240                192                     75 032 832      488 495
00003.M2TS      4353 (0x1101)   0x86            DTS-HD MA       deu (German)            3126,240                1 712                   669 126 028     4 133 056
QUICK SUMMARY:
Disc Title: DIE_ALPEN_VON_OBEN_DIE_SUEDALPEN_2011_HDCLUBDisc Size: 47 805 032 643 bytesProtection: AACSBD-Java: NoPlaylist: 00003.MPLSSize: 9 462 558 720 bytesLength: 0:52:06.360Total Bitrate: 24,21 MbpsVideo: MPEG-4 AVC Video / 20950 kbps / 1080i / 25 fps / 16:9 / High Profile 4.1Audio: Russian / Dolby Digital Audio / 2.0 / 48 kHz / 192 kbps / DN -4dBAudio: German / DTS-HD Master Audio / 2.0 / 48 kHz / 1712 kbps / 16-bit (DTS Core: 2.0 / 48 kHz / 1509 kbps / 16-bit)
********************PLAYLIST: 01006.MPLS********************
Total   Video
Title                                                           Codec   Length  Movie Size      Disc Size       Bitrate Bitrate Main Audio Track                          Secondary Audio Track
-----                                                           ------  ------- --------------  --------------  ------- ------- ------------------                        ---------------------
01006.MPLS                                                      AVC     0:52:06 9 468 248 064   47 805 032 643  24,23   20,96   DD AC3 2.0 192Kbps
DISC INFO:
Disc Title:     DIE_ALPEN_VON_OBEN_DIE_SUEDALPEN_2011_HDCLUB
Disc Size:      47 805 032 643 bytes
Protection:     AACS
BD-Java:        No
Extras:         50Hz Content
BDInfo:         0.5.8
PLAYLIST REPORT:
Name:                   01006.MPLS
Length:                 0:52:06.160 (h:m:s.ms)
Size:                   9 468 248 064 bytes
Total Bitrate:          24,23 Mbps
(*) Indicates included stream hidden by this playlist.
VIDEO:
Codec                   Bitrate             Description
-----                   -------             -----------
MPEG-4 AVC Video        20965 kbps          1080i / 25 fps / 16:9 / High Profile 4.1
AUDIO:
Codec                           Language        Bitrate         Description
-----                           --------        -------         -----------
Dolby Digital Audio             Russian         192 kbps        2.0 / 48 kHz / 192 kbps / DN -4dB
* DTS-HD Master Audio           German          1719 kbps       2.0 / 48 kHz / 1719 kbps / 16-bit (DTS Core: 2.0 / 48 kHz / 1509 kbps / 16-bit)
FILES:
Name            Time In         Length          Size            Total Bitrate
----            -------         ------          ----            -------------
00006.M2TS      0:00:00.000     0:52:05.080     9 467 977 728   24 237
00007.M2TS      0:52:05.080     0:00:01.080     270 336         2 002
CHAPTERS:
Number          Time In         Length          Avg Video Rate  Max 1-Sec Rate  Max 1-Sec Time  Max 5-Sec Rate  Max 5-Sec Time  Max 10Sec Rate  Max 10Sec Time  Avg Frame Size  Max Frame Size  Max Frame Time
------          -------         ------          --------------  --------------  --------------  --------------  --------------  --------------  --------------  --------------  --------------  --------------
1               0:00:00.000     0:01:12.440     20 481 kbps     31 231 kbps     00:00:10.879    22 975 kbps     00:00:37.640    22 267 kbps     00:00:02.280    102 406 bytes   566 173 bytes   00:00:24.720
2               0:01:12.440     0:07:57.360     21 007 kbps     29 947 kbps     00:05:25.320    23 426 kbps     00:01:12.720    22 001 kbps     00:02:51.480    105 033 bytes   1 007 726 bytes 00:01:14.800
3               0:09:09.800     0:05:03.079     20 967 kbps     28 670 kbps     00:13:31.680    23 116 kbps     00:09:21.440    22 003 kbps     00:09:22.800    104 837 bytes   603 404 bytes   00:09:12.400
4               0:14:12.880     0:04:11.560     21 001 kbps     30 289 kbps     00:17:52.640    23 061 kbps     00:16:27.840    22 106 kbps     00:16:27.840    105 006 bytes   572 059 bytes   00:15:06.120
5               0:18:24.440     0:06:16.119     21 006 kbps     31 319 kbps     00:22:30.120    22 966 kbps     00:22:46.320    22 166 kbps     00:22:20.840    105 028 bytes   620 907 bytes   00:18:38.560
6               0:24:40.560     0:06:43.440     21 010 kbps     30 926 kbps     00:28:37.440    23 361 kbps     00:28:19.760    22 153 kbps     00:28:14.720    105 052 bytes   602 570 bytes   00:24:52.640
7               0:31:24.000     0:08:52.199     20 984 kbps     30 931 kbps     00:39:44.040    23 337 kbps     00:37:38.400    22 097 kbps     00:37:38.320    104 919 bytes   621 243 bytes   00:31:35.480
8               0:40:16.200     0:05:24.000     21 022 kbps     29 704 kbps     00:42:34.400    23 338 kbps     00:44:01.520    22 181 kbps     00:43:56.560    105 110 bytes   591 177 bytes   00:42:40.640
9               0:45:40.200     0:06:24.880     20 873 kbps     28 363 kbps     00:49:30.080    23 170 kbps     00:46:48.960    22 047 kbps     00:45:58.640    104 364 bytes   603 982 bytes   00:45:53.600
10              0:52:05.080     0:00:01.079     52 kbps         56 kbps         00:52:05.080    0 kbps          00:00:00.000    0 kbps          00:00:00.000    279 bytes       784 bytes       00:52:05.680
STREAM DIAGNOSTICS:
File            PID             Type            Codec           Language                Seconds                 Bitrate                 Bytes           Packets
----            ---             ----            -----           --------                --------------          --------------          -------------   -----
00006.M2TS      4113 (0x1011)   0x1B            AVC                                     3124,960                20 973                  8 192 324 640   44 569 105
00006.M2TS      4352 (0x1100)   0x81            AC3             rus (Russian)           3124,960                192                     75 002 112      488 295
00006.M2TS      4353 (0x1101)   0x86            DTS-HD MA       deu (German)            3124,960                1 720                   671 766 348     4 134 229
00007.M2TS      4113 (0x1011)   0x1B            AVC                                     1,000                   62                      7 762           51
00007.M2TS      4352 (0x1100)   0x86            DTS-HD MA       rus (Russian)           1,000                   1 644                   205 524         1 287
QUICK SUMMARY:
Disc Title: DIE_ALPEN_VON_OBEN_DIE_SUEDALPEN_2011_HDCLUBDisc Size: 47 805 032 643 bytesProtection: AACSBD-Java: NoPlaylist: 01006.MPLSSize: 9 468 248 064 bytesLength: 0:52:06.160Total Bitrate: 24,23 MbpsVideo: MPEG-4 AVC Video / 20965 kbps / 1080i / 25 fps / 16:9 / High Profile 4.1Audio: Russian / Dolby Digital Audio / 2.0 / 48 kHz / 192 kbps / DN -4dB* Audio: German / DTS-HD Master Audio / 2.0 / 48 kHz / 1719 kbps / 16-bit (DTS Core: 2.0 / 48 kHz / 1509 kbps / 16-bit)
********************PLAYLIST: 00006.MPLS********************
Total   Video
Title                                                           Codec   Length  Movie Size      Disc Size       Bitrate Bitrate Main Audio Track                          Secondary Audio Track
-----                                                           ------  ------- --------------  --------------  ------- ------- ------------------                        ---------------------
00006.MPLS                                                      AVC     0:52:05 9 467 977 728   47 805 032 643  24,24   20,97   DD AC3 2.0 192Kbps
DISC INFO:
Disc Title:     DIE_ALPEN_VON_OBEN_DIE_SUEDALPEN_2011_HDCLUB
Disc Size:      47 805 032 643 bytes
Protection:     AACS
BD-Java:        No
Extras:         50Hz Content
BDInfo:         0.5.8
PLAYLIST REPORT:
Name:                   00006.MPLS
Length:                 0:52:05.080 (h:m:s.ms)
Size:                   9 467 977 728 bytes
Total Bitrate:          24,24 Mbps
VIDEO:
Codec                   Bitrate             Description
-----                   -------             -----------
MPEG-4 AVC Video        20972 kbps          1080i / 25 fps / 16:9 / High Profile 4.1
AUDIO:
Codec                           Language        Bitrate         Description
-----                           --------        -------         -----------
Dolby Digital Audio             Russian         192 kbps        2.0 / 48 kHz / 192 kbps / DN -4dB
DTS-HD Master Audio             German          1720 kbps       2.0 / 48 kHz / 1720 kbps / 16-bit (DTS Core: 2.0 / 48 kHz / 1509 kbps / 16-bit)
FILES:
Name            Time In         Length          Size            Total Bitrate
----            -------         ------          ----            -------------
00006.M2TS      0:00:00.000     0:52:05.080     9 467 977 728   24 237
CHAPTERS:
Number          Time In         Length          Avg Video Rate  Max 1-Sec Rate  Max 1-Sec Time  Max 5-Sec Rate  Max 5-Sec Time  Max 10Sec Rate  Max 10Sec Time  Avg Frame Size  Max Frame Size  Max Frame Time
------          -------         ------          --------------  --------------  --------------  --------------  --------------  --------------  --------------  --------------  --------------  --------------
1               0:00:00.000     0:52:05.080     20 972 kbps     31 319 kbps     00:22:30.120    23 426 kbps     00:01:12.720    22 267 kbps     00:00:02.280    104 860 bytes   1 007 726 bytes 00:01:14.800
STREAM DIAGNOSTICS:
File            PID             Type            Codec           Language                Seconds                 Bitrate                 Bytes           Packets
----            ---             ----            -----           --------                --------------          --------------          -------------   -----
00006.M2TS      4113 (0x1011)   0x1B            AVC                                     3124,960                20 973                  8 192 324 640   44 569 105
00006.M2TS      4352 (0x1100)   0x81            AC3             rus (Russian)           3124,960                192                     75 002 112      488 295
00006.M2TS      4353 (0x1101)   0x86            DTS-HD MA       deu (German)            3124,960                1 720                   671 766 348     4 134 229
QUICK SUMMARY:
Disc Title: DIE_ALPEN_VON_OBEN_DIE_SUEDALPEN_2011_HDCLUBDisc Size: 47 805 032 643 bytesProtection: AACSBD-Java: NoPlaylist: 00006.MPLSSize: 9 467 977 728 bytesLength: 0:52:05.080Total Bitrate: 24,24 MbpsVideo: MPEG-4 AVC Video / 20972 kbps / 1080i / 25 fps / 16:9 / High Profile 4.1Audio: Russian / Dolby Digital Audio / 2.0 / 48 kHz / 192 kbps / DN -4dBAudio: German / DTS-HD Master Audio / 2.0 / 48 kHz / 1720 kbps / 16-bit (DTS Core: 2.0 / 48 kHz / 1509 kbps / 16-bit)
********************PLAYLIST: 01002.MPLS********************
Total   Video
Title                                                           Codec   Length  Movie Size      Disc Size       Bitrate Bitrate Main Audio Track                          Secondary Audio Track
-----                                                           ------  ------- --------------  --------------  ------- ------- ------------------                        ---------------------
01002.MPLS                                                      AVC     0:51:39 9 377 488 896   47 805 032 643  24,21   20,94   DD AC3 2.0 192Kbps
DISC INFO:
Disc Title:     DIE_ALPEN_VON_OBEN_DIE_SUEDALPEN_2011_HDCLUB
Disc Size:      47 805 032 643 bytes
Protection:     AACS
BD-Java:        No
Extras:         50Hz Content
BDInfo:         0.5.8
PLAYLIST REPORT:
Name:                   01002.MPLS
Length:                 0:51:39.239 (h:m:s.ms)
Size:                   9 377 488 896 bytes
Total Bitrate:          24,21 Mbps
VIDEO:
Codec                   Bitrate             Description
-----                   -------             -----------
MPEG-4 AVC Video        20943 kbps          1080i / 25 fps / 16:9 / High Profile 4.1
AUDIO:
Codec                           Language        Bitrate         Description
-----                           --------        -------         -----------
Dolby Digital Audio             Russian         192 kbps        2.0 / 48 kHz / 192 kbps / DN -4dB
DTS-HD Master Audio             German          1716 kbps       2.0 / 48 kHz / 1716 kbps / 16-bit (DTS Core: 2.0 / 48 kHz / 1509 kbps / 16-bit)
FILES:
Name            Time In         Length          Size            Total Bitrate
----            -------         ------          ----            -------------
00002.M2TS      0:00:00.000     0:51:38.160     9 377 218 560   24 214
00007.M2TS      0:51:38.160     0:00:01.080     270 336         2 002
CHAPTERS:
Number          Time In         Length          Avg Video Rate  Max 1-Sec Rate  Max 1-Sec Time  Max 5-Sec Rate  Max 5-Sec Time  Max 10Sec Rate  Max 10Sec Time  Avg Frame Size  Max Frame Size  Max Frame Time
------          -------         ------          --------------  --------------  --------------  --------------  --------------  --------------  --------------  --------------  --------------  --------------
1               0:00:00.000     0:01:12.199     20 530 kbps     31 763 kbps     00:00:10.879    23 230 kbps     00:00:09.399    22 314 kbps     00:00:02.280    102 649 bytes   566 484 bytes   00:00:23.760
2               0:01:12.199     0:06:44.680     20 820 kbps     31 203 kbps     00:05:46.599    23 884 kbps     00:01:40.039    22 205 kbps     00:04:35.080    104 102 bytes   860 662 bytes   00:01:14.039
3               0:07:56.880     0:04:31.120     20 991 kbps     29 888 kbps     00:10:07.200    23 524 kbps     00:11:22.800    22 148 kbps     00:11:17.760    104 956 bytes   607 521 bytes   00:08:07.280
4               0:12:28.000     0:05:28.960     21 033 kbps     34 231 kbps     00:17:00.520    24 186 kbps     00:16:57.280    22 994 kbps     00:16:52.480    105 163 bytes   570 280 bytes   00:15:50.680
5               0:17:56.960     0:06:37.839     20 985 kbps     31 367 kbps     00:22:01.200    23 022 kbps     00:22:48.240    22 435 kbps     00:21:52.200    104 923 bytes   681 229 bytes   00:18:07.240
6               0:24:34.800     0:05:48.120     21 016 kbps     31 179 kbps     00:28:18.040    23 209 kbps     00:25:01.360    22 077 kbps     00:24:56.400    105 081 bytes   605 018 bytes   00:24:43.080
7               0:30:22.920     0:07:44.759     21 022 kbps     33 024 kbps     00:32:36.520    25 158 kbps     00:34:30.040    22 656 kbps     00:32:29.000    105 109 bytes   607 665 bytes   00:30:31.160
8               0:38:07.680     0:05:39.400     21 006 kbps     30 463 kbps     00:43:10.040    23 086 kbps     00:41:33.120    22 177 kbps     00:39:48.320    105 032 bytes   669 934 bytes   00:38:33.400
9               0:43:47.080     0:07:51.079     20 856 kbps     31 050 kbps     00:47:56.080    23 541 kbps     00:48:04.720    22 393 kbps     00:46:44.480    104 282 bytes   649 846 bytes   00:43:58.160
10              0:51:38.160     0:00:01.079     52 kbps         56 kbps         00:51:38.160    0 kbps          00:00:00.000    0 kbps          00:00:00.000    279 bytes       784 bytes       00:51:38.759
STREAM DIAGNOSTICS:
File            PID             Type            Codec           Language                Seconds                 Bitrate                 Bytes           Packets
----            ---             ----            -----           --------                --------------          --------------          -------------   -----
00002.M2TS      4113 (0x1011)   0x1B            AVC                                     3098,040                20 951                  8 113 397 800   44 139 732
00002.M2TS      4352 (0x1100)   0x81            AC3             rus (Russian)           3098,040                192                     74 356 224      484 090
00002.M2TS      4353 (0x1101)   0x86            DTS-HD MA       deu (German)            3098,040                1 717                   664 828 816     4 096 152
00007.M2TS      4113 (0x1011)   0x1B            AVC                                     1,000                   62                      7 762           51
00007.M2TS      4352 (0x1100)   0x86            DTS-HD MA       rus (Russian)           1,000                   1 644                   205 524         1 287
QUICK SUMMARY:
Disc Title: DIE_ALPEN_VON_OBEN_DIE_SUEDALPEN_2011_HDCLUBDisc Size: 47 805 032 643 bytesProtection: AACSBD-Java: NoPlaylist: 01002.MPLSSize: 9 377 488 896 bytesLength: 0:51:39.239Total Bitrate: 24,21 MbpsVideo: MPEG-4 AVC Video / 20943 kbps / 1080i / 25 fps / 16:9 / High Profile 4.1Audio: Russian / Dolby Digital Audio / 2.0 / 48 kHz / 192 kbps / DN -4dBAudio: German / DTS-HD Master Audio / 2.0 / 48 kHz / 1716 kbps / 16-bit (DTS Core: 2.0 / 48 kHz / 1509 kbps / 16-bit)
********************PLAYLIST: 00002.MPLS********************
Total   Video
Title                                                           Codec   Length  Movie Size      Disc Size       Bitrate Bitrate Main Audio Track                          Secondary Audio Track
-----                                                           ------  ------- --------------  --------------  ------- ------- ------------------                        ---------------------
00002.MPLS                                                      AVC     0:51:38 9 377 218 560   47 805 032 643  24,21   20,95   DD AC3 2.0 192Kbps
DISC INFO:
Disc Title:     DIE_ALPEN_VON_OBEN_DIE_SUEDALPEN_2011_HDCLUB
Disc Size:      47 805 032 643 bytes
Protection:     AACS
BD-Java:        No
Extras:         50Hz Content
BDInfo:         0.5.8
PLAYLIST REPORT:
Name:                   00002.MPLS
Length:                 0:51:38.160 (h:m:s.ms)
Size:                   9 377 218 560 bytes
Total Bitrate:          24,21 Mbps
VIDEO:
Codec                   Bitrate             Description
-----                   -------             -----------
MPEG-4 AVC Video        20950 kbps          1080i / 25 fps / 16:9 / High Profile 4.1
AUDIO:
Codec                           Language        Bitrate         Description
-----                           --------        -------         -----------
Dolby Digital Audio             Russian         192 kbps        2.0 / 48 kHz / 192 kbps / DN -4dB
DTS-HD Master Audio             German          1717 kbps       2.0 / 48 kHz / 1717 kbps / 16-bit (DTS Core: 2.0 / 48 kHz / 1509 kbps / 16-bit)
FILES:
Name            Time In         Length          Size            Total Bitrate
----            -------         ------          ----            -------------
00002.M2TS      0:00:00.000     0:51:38.160     9 377 218 560   24 214
CHAPTERS:
Number          Time In         Length          Avg Video Rate  Max 1-Sec Rate  Max 1-Sec Time  Max 5-Sec Rate  Max 5-Sec Time  Max 10Sec Rate  Max 10Sec Time  Avg Frame Size  Max Frame Size  Max Frame Time
------          -------         ------          --------------  --------------  --------------  --------------  --------------  --------------  --------------  --------------  --------------  --------------
1               0:00:00.000     0:51:38.160     20 950 kbps     34 231 kbps     00:17:00.520    25 158 kbps     00:34:30.040    22 994 kbps     00:16:52.480    104 753 bytes   860 662 bytes   00:01:14.039
STREAM DIAGNOSTICS:
File            PID             Type            Codec           Language                Seconds                 Bitrate                 Bytes           Packets
----            ---             ----            -----           --------                --------------          --------------          -------------   -----
00002.M2TS      4113 (0x1011)   0x1B            AVC                                     3098,040                20 951                  8 113 397 800   44 139 732
00002.M2TS      4352 (0x1100)   0x81            AC3             rus (Russian)           3098,040                192                     74 356 224      484 090
00002.M2TS      4353 (0x1101)   0x86            DTS-HD MA       deu (German)            3098,040                1 717                   664 828 816     4 096 152
QUICK SUMMARY:
Disc Title: DIE_ALPEN_VON_OBEN_DIE_SUEDALPEN_2011_HDCLUBDisc Size: 47 805 032 643 bytesProtection: AACSBD-Java: NoPlaylist: 00002.MPLSSize: 9 377 218 560 bytesLength: 0:51:38.160Total Bitrate: 24,21 MbpsVideo: MPEG-4 AVC Video / 20950 kbps / 1080i / 25 fps / 16:9 / High Profile 4.1Audio: Russian / Dolby Digital Audio / 2.0 / 48 kHz / 192 kbps / DN -4dBAudio: German / DTS-HD Master Audio / 2.0 / 48 kHz / 1717 kbps / 16-bit (DTS Core: 2.0 / 48 kHz / 1509 kbps / 16-bit)
********************PLAYLIST: 01004.MPLS********************
Total   Video
Title                                                           Codec   Length  Movie Size      Disc Size       Bitrate Bitrate Main Audio Track                          Secondary Audio Track
-----                                                           ------  ------- --------------  --------------  ------- ------- ------------------                        ---------------------
01004.MPLS                                                      AVC     0:51:32 9 356 863 488   47 805 032 643  24,20   20,94   DD AC3 2.0 192Kbps
DISC INFO:
Disc Title:     DIE_ALPEN_VON_OBEN_DIE_SUEDALPEN_2011_HDCLUB
Disc Size:      47 805 032 643 bytes
Protection:     AACS
BD-Java:        No
Extras:         50Hz Content
BDInfo:         0.5.8
PLAYLIST REPORT:
Name:                   01004.MPLS
Length:                 0:51:32.840 (h:m:s.ms)
Size:                   9 356 863 488 bytes
Total Bitrate:          24,20 Mbps
VIDEO:
Codec                   Bitrate             Description
-----                   -------             -----------
MPEG-4 AVC Video        20941 kbps          1080i / 25 fps / 16:9 / High Profile 4.1
AUDIO:
Codec                           Language        Bitrate         Description
-----                           --------        -------         -----------
Dolby Digital Audio             Russian         192 kbps        2.0 / 48 kHz / 192 kbps / DN -4dB
DTS-HD Master Audio             German          1715 kbps       2.0 / 48 kHz / 1715 kbps / 16-bit (DTS Core: 2.0 / 48 kHz / 1509 kbps / 16-bit)
FILES:
Name            Time In         Length          Size            Total Bitrate
----            -------         ------          ----            -------------
00004.M2TS      0:00:00.000     0:51:31.760     9 356 593 152   24 210
00007.M2TS      0:51:31.760     0:00:01.080     270 336         2 002
CHAPTERS:
Number          Time In         Length          Avg Video Rate  Max 1-Sec Rate  Max 1-Sec Time  Max 5-Sec Rate  Max 5-Sec Time  Max 10Sec Rate  Max 10Sec Time  Avg Frame Size  Max Frame Size  Max Frame Time
------          -------         ------          --------------  --------------  --------------  --------------  --------------  --------------  --------------  --------------  --------------  --------------
1               0:00:00.000     0:01:13.199     20 542 kbps     30 502 kbps     00:00:10.879    23 310 kbps     00:00:47.759    22 329 kbps     00:00:02.280    102 709 bytes   548 508 bytes   00:00:27.600
2               0:01:13.199     0:06:34.000     20 994 kbps     29 585 kbps     00:01:16.000    22 959 kbps     00:02:44.040    22 060 kbps     00:03:11.240    104 969 bytes   1 042 386 bytes 00:01:16.039
3               0:07:47.200     0:05:46.080     20 991 kbps     30 157 kbps     00:08:01.960    23 501 kbps     00:12:01.200    22 074 kbps     00:11:59.200    104 956 bytes   656 303 bytes   00:08:00.440
4               0:13:33.280     0:07:41.719     20 951 kbps     30 168 kbps     00:17:39.400    23 060 kbps     00:17:39.320    22 223 kbps     00:17:39.400    104 757 bytes   588 133 bytes   00:19:24.480
5               0:21:15.000     0:04:39.000     20 915 kbps     31 678 kbps     00:24:55.200    23 159 kbps     00:22:44.960    22 009 kbps     00:24:55.200    104 577 bytes   563 744 bytes   00:22:13.800
6               0:25:54.000     0:05:45.640     20 904 kbps     30 380 kbps     00:29:58.160    23 301 kbps     00:27:24.880    22 075 kbps     00:29:56.640    104 520 bytes   612 396 bytes   00:30:50.040
7               0:31:39.640     0:07:22.359     20 956 kbps     30 905 kbps     00:35:43.920    23 331 kbps     00:34:39.480    22 104 kbps     00:38:36.320    104 782 bytes   627 488 bytes   00:31:51.680
8               0:39:02.000     0:04:21.079     21 095 kbps     36 884 kbps     00:41:41.920    25 879 kbps     00:40:39.600    23 302 kbps     00:40:33.920    105 476 bytes   670 315 bytes   00:42:27.960
9               0:43:23.080     0:08:08.680     20 906 kbps     31 585 kbps     00:47:46.760    23 486 kbps     00:46:21.360    22 251 kbps     00:48:03.040    104 529 bytes   651 299 bytes   00:43:33.120
10              0:51:31.760     0:00:01.079     52 kbps         56 kbps         00:51:31.760    0 kbps          00:00:00.000    0 kbps          00:00:00.000    279 bytes       784 bytes       00:51:32.360
STREAM DIAGNOSTICS:
File            PID             Type            Codec           Language                Seconds                 Bitrate                 Bytes           Packets
----            ---             ----            -----           --------                --------------          --------------          -------------   -----
00004.M2TS      4113 (0x1011)   0x1B            AVC                                     3091,640                20 949                  8 096 037 900   44 045 433
00004.M2TS      4352 (0x1100)   0x81            AC3             rus (Russian)           3091,640                192                     74 202 624      483 090
00004.M2TS      4353 (0x1101)   0x86            DTS-HD MA       deu (German)            3091,640                1 716                   663 075 484     4 084 255
00007.M2TS      4113 (0x1011)   0x1B            AVC                                     1,000                   62                      7 762           51
00007.M2TS      4352 (0x1100)   0x86            DTS-HD MA       rus (Russian)           1,000                   1 644                   205 524         1 287
QUICK SUMMARY:
Disc Title: DIE_ALPEN_VON_OBEN_DIE_SUEDALPEN_2011_HDCLUBDisc Size: 47 805 032 643 bytesProtection: AACSBD-Java: NoPlaylist: 01004.MPLSSize: 9 356 863 488 bytesLength: 0:51:32.840Total Bitrate: 24,20 MbpsVideo: MPEG-4 AVC Video / 20941 kbps / 1080i / 25 fps / 16:9 / High Profile 4.1Audio: Russian / Dolby Digital Audio / 2.0 / 48 kHz / 192 kbps / DN -4dBAudio: German / DTS-HD Master Audio / 2.0 / 48 kHz / 1715 kbps / 16-bit (DTS Core: 2.0 / 48 kHz / 1509 kbps / 16-bit)
********************PLAYLIST: 00004.MPLS********************
Total   Video
Title                                                           Codec   Length  Movie Size      Disc Size       Bitrate Bitrate Main Audio Track                          Secondary Audio Track
-----                                                           ------  ------- --------------  --------------  ------- ------- ------------------                        ---------------------
00004.MPLS                                                      AVC     0:51:31 9 356 593 152   47 805 032 643  24,21   20,95   DD AC3 2.0 192Kbps
DISC INFO:
Disc Title:     DIE_ALPEN_VON_OBEN_DIE_SUEDALPEN_2011_HDCLUB
Disc Size:      47 805 032 643 bytes
Protection:     AACS
BD-Java:        No
Extras:         50Hz Content
BDInfo:         0.5.8
PLAYLIST REPORT:
Name:                   00004.MPLS
Length:                 0:51:31.760 (h:m:s.ms)
Size:                   9 356 593 152 bytes
Total Bitrate:          24,21 Mbps
VIDEO:
Codec                   Bitrate             Description
-----                   -------             -----------
MPEG-4 AVC Video        20949 kbps          1080i / 25 fps / 16:9 / High Profile 4.1
AUDIO:
Codec                           Language        Bitrate         Description
-----                           --------        -------         -----------
Dolby Digital Audio             Russian         192 kbps        2.0 / 48 kHz / 192 kbps / DN -4dB
DTS-HD Master Audio             German          1716 kbps       2.0 / 48 kHz / 1716 kbps / 16-bit (DTS Core: 2.0 / 48 kHz / 1509 kbps / 16-bit)
FILES:
Name            Time In         Length          Size            Total Bitrate
----            -------         ------          ----            -------------
00004.M2TS      0:00:00.000     0:51:31.760     9 356 593 152   24 210
CHAPTERS:
Number          Time In         Length          Avg Video Rate  Max 1-Sec Rate  Max 1-Sec Time  Max 5-Sec Rate  Max 5-Sec Time  Max 10Sec Rate  Max 10Sec Time  Avg Frame Size  Max Frame Size  Max Frame Time
------          -------         ------          --------------  --------------  --------------  --------------  --------------  --------------  --------------  --------------  --------------  --------------
1               0:00:00.000     0:51:31.760     20 949 kbps     36 884 kbps     00:41:41.920    25 879 kbps     00:40:39.600    23 302 kbps     00:40:33.920    104 745 bytes   1 042 386 bytes 00:01:16.039
STREAM DIAGNOSTICS:
File            PID             Type            Codec           Language                Seconds                 Bitrate                 Bytes           Packets
----            ---             ----            -----           --------                --------------          --------------          -------------   -----
00004.M2TS      4113 (0x1011)   0x1B            AVC                                     3091,640                20 949                  8 096 037 900   44 045 433
00004.M2TS      4352 (0x1100)   0x81            AC3             rus (Russian)           3091,640                192                     74 202 624      483 090
00004.M2TS      4353 (0x1101)   0x86            DTS-HD MA       deu (German)            3091,640                1 716                   663 075 484     4 084 255
QUICK SUMMARY:
Disc Title: DIE_ALPEN_VON_OBEN_DIE_SUEDALPEN_2011_HDCLUBDisc Size: 47 805 032 643 bytesProtection: AACSBD-Java: NoPlaylist: 00004.MPLSSize: 9 356 593 152 bytesLength: 0:51:31.760Total Bitrate: 24,21 MbpsVideo: MPEG-4 AVC Video / 20949 kbps / 1080i / 25 fps / 16:9 / High Profile 4.1Audio: Russian / Dolby Digital Audio / 2.0 / 48 kHz / 192 kbps / DN -4dBAudio: German / DTS-HD Master Audio / 2.0 / 48 kHz / 1716 kbps / 16-bit (DTS Core: 2.0 / 48 kHz / 1509 kbps / 16-bit)
********************PLAYLIST: 00001.MPLS********************
Total   Video
Title                                                           Codec   Length  Movie Size      Disc Size       Bitrate Bitrate Main Audio Track                          Secondary Audio Track
-----                                                           ------  ------- --------------  --------------  ------- ------- ------------------                        ---------------------
00001.MPLS                                                      AVC     0:02:30 682 088 448     47 805 032 643  36,36   32,74   DTS-HD Master 2.0 1779Kbps (48kHz/16-bit)
DISC INFO:
Disc Title:     DIE_ALPEN_VON_OBEN_DIE_SUEDALPEN_2011_HDCLUB
Disc Size:      47 805 032 643 bytes
Protection:     AACS
BD-Java:        No
Extras:         50Hz Content
BDInfo:         0.5.8
PLAYLIST REPORT:
Name:                   00001.MPLS
Length:                 0:02:30.080 (h:m:s.ms)
Size:                   682 088 448 bytes
Total Bitrate:          36,36 Mbps
VIDEO:
Codec                   Bitrate             Description
-----                   -------             -----------
MPEG-4 AVC Video        32742 kbps          1080i / 25 fps / 16:9 / High Profile 4.1
AUDIO:
Codec                           Language        Bitrate         Description
-----                           --------        -------         -----------
DTS-HD Master Audio             German          1779 kbps       2.0 / 48 kHz / 1779 kbps / 16-bit (DTS Core: 2.0 / 48 kHz / 1509 kbps / 16-bit)
FILES:
Name            Time In         Length          Size            Total Bitrate
----            -------         ------          ----            -------------
00001.M2TS      0:00:00.000     0:02:30.080     682 088 448     36 359
CHAPTERS:
Number          Time In         Length          Avg Video Rate  Max 1-Sec Rate  Max 1-Sec Time  Max 5-Sec Rate  Max 5-Sec Time  Max 10Sec Rate  Max 10Sec Time  Avg Frame Size  Max Frame Size  Max Frame Time
------          -------         ------          --------------  --------------  --------------  --------------  --------------  --------------  --------------  --------------  --------------  --------------
1               0:00:00.000     0:02:30.080     32 742 kbps     44 102 kbps     00:00:00.799    35 222 kbps     00:02:03.720    34 283 kbps     00:01:58.560    163 753 bytes   727 263 bytes   00:00:45.520
STREAM DIAGNOSTICS:
File            PID             Type            Codec           Language                Seconds                 Bitrate                 Bytes           Packets
----            ---             ----            -----           --------                --------------          --------------          -------------   -----
00001.M2TS      4113 (0x1011)   0x1B            AVC                                     150,000                 32 759                  614 236 311     3 340 422
00001.M2TS      4352 (0x1100)   0x86            DTS-HD MA       deu (German)            150,000                 1 780                   33 383 284      205 423
QUICK SUMMARY:
Disc Title: DIE_ALPEN_VON_OBEN_DIE_SUEDALPEN_2011_HDCLUBDisc Size: 47 805 032 643 bytesProtection: AACSBD-Java: NoPlaylist: 00001.MPLSSize: 682 088 448 bytesLength: 0:02:30.080Total Bitrate: 36,36 MbpsVideo: MPEG-4 AVC Video / 32742 kbps / 1080i / 25 fps / 16:9 / High Profile 4.1Audio: German / DTS-HD Master Audio / 2.0 / 48 kHz / 1779 kbps / 16-bit (DTS Core: 2.0 / 48 kHz / 1509 kbps / 16-bit)
********************PLAYLIST: 01001.MPLS********************
Total   Video
Title                                                           Codec   Length  Movie Size      Disc Size       Bitrate Bitrate Main Audio Track                          Secondary Audio Track
-----                                                           ------  ------- --------------  --------------  ------- ------- ------------------                        ---------------------
01001.MPLS                                                      AVC     0:02:30 682 088 448     47 805 032 643  36,36   32,74   DTS-HD Master 2.0 1779Kbps (48kHz/16-bit)
DISC INFO:
Disc Title:     DIE_ALPEN_VON_OBEN_DIE_SUEDALPEN_2011_HDCLUB
Disc Size:      47 805 032 643 bytes
Protection:     AACS
BD-Java:        No
Extras:         50Hz Content
BDInfo:         0.5.8
PLAYLIST REPORT:
Name:                   01001.MPLS
Length:                 0:02:30.080 (h:m:s.ms)
Size:                   682 088 448 bytes
Total Bitrate:          36,36 Mbps
VIDEO:
Codec                   Bitrate             Description
-----                   -------             -----------
MPEG-4 AVC Video        32742 kbps          1080i / 25 fps / 16:9 / High Profile 4.1
AUDIO:
Codec                           Language        Bitrate         Description
-----                           --------        -------         -----------
DTS-HD Master Audio             German          1779 kbps       2.0 / 48 kHz / 1779 kbps / 16-bit (DTS Core: 2.0 / 48 kHz / 1509 kbps / 16-bit)
FILES:
Name            Time In         Length          Size            Total Bitrate
----            -------         ------          ----            -------------
00001.M2TS      0:00:00.000     0:02:30.080     682 088 448     36 359
CHAPTERS:
Number          Time In         Length          Avg Video Rate  Max 1-Sec Rate  Max 1-Sec Time  Max 5-Sec Rate  Max 5-Sec Time  Max 10Sec Rate  Max 10Sec Time  Avg Frame Size  Max Frame Size  Max Frame Time
------          -------         ------          --------------  --------------  --------------  --------------  --------------  --------------  --------------  --------------  --------------  --------------
1               0:00:00.000     0:02:30.080     32 742 kbps     44 102 kbps     00:00:00.799    35 222 kbps     00:02:03.720    34 283 kbps     00:01:58.560    163 753 bytes   727 263 bytes   00:00:45.520
STREAM DIAGNOSTICS:
File            PID             Type            Codec           Language                Seconds                 Bitrate                 Bytes           Packets
----            ---             ----            -----           --------                --------------          --------------          -------------   -----
00001.M2TS      4113 (0x1011)   0x1B            AVC                                     150,000                 32 759                  614 236 311     3 340 422
00001.M2TS      4352 (0x1100)   0x86            DTS-HD MA       deu (German)            150,000                 1 780                   33 383 284      205 423
QUICK SUMMARY:
Disc Title: DIE_ALPEN_VON_OBEN_DIE_SUEDALPEN_2011_HDCLUBDisc Size: 47 805 032 643 bytesProtection: AACSBD-Java: NoPlaylist: 01001.MPLSSize: 682 088 448 bytesLength: 0:02:30.080Total Bitrate: 36,36 MbpsVideo: MPEG-4 AVC Video / 32742 kbps / 1080i / 25 fps / 16:9 / High Profile 4.1Audio: German / DTS-HD Master Audio / 2.0 / 48 kHz / 1779 kbps / 16-bit (DTS Core: 2.0 / 48 kHz / 1509 kbps / 16-bit)
********************PLAYLIST: 00000.MPLS********************
Total   Video
Title                                                           Codec   Length  Movie Size      Disc Size       Bitrate Bitrate Main Audio Track                          Secondary Audio Track
-----                                                           ------  ------- --------------  --------------  ------- ------- ------------------                        ---------------------
00000.MPLS                                                      AVC     0:00:28 8 644 608       47 805 032 643  2,47    2,28
DISC INFO:
Disc Title:     DIE_ALPEN_VON_OBEN_DIE_SUEDALPEN_2011_HDCLUB
Disc Size:      47 805 032 643 bytes
Protection:     AACS
BD-Java:        No
Extras:         50Hz Content
BDInfo:         0.5.8
PLAYLIST REPORT:
Name:                   00000.MPLS
Length:                 0:00:28.040 (h:m:s.ms)
Size:                   8 644 608 bytes
Total Bitrate:          2,47 Mbps
VIDEO:
Codec                   Bitrate             Description
-----                   -------             -----------
MPEG-4 AVC Video        2277 kbps           1080i / 25 fps / 16:9 / High Profile 4.1
FILES:
Name            Time In         Length          Size            Total Bitrate
----            -------         ------          ----            -------------
00000.M2TS      0:00:00.000     0:00:28.040     8 644 608       2 466
CHAPTERS:
Number          Time In         Length          Avg Video Rate  Max 1-Sec Rate  Max 1-Sec Time  Max 5-Sec Rate  Max 5-Sec Time  Max 10Sec Rate  Max 10Sec Time  Avg Frame Size  Max Frame Size  Max Frame Time
------          -------         ------          --------------  --------------  --------------  --------------  --------------  --------------  --------------  --------------  --------------  --------------
1               0:00:00.000     0:00:28.040     2 277 kbps      11 528 kbps     00:00:00.399    4 832 kbps      00:00:05.159    4 053 kbps      00:00:00.360    11 403 bytes    179 841 bytes   00:00:05.200
STREAM DIAGNOSTICS:
File            PID             Type            Codec           Language                Seconds                 Bitrate                 Bytes           Packets
----            ---             ----            -----           --------                --------------          --------------          -------------   -----
00000.M2TS      4113 (0x1011)   0x1B            AVC                                     27,960                  2 284                   7 981 884       43 784
QUICK SUMMARY:
Disc Title: DIE_ALPEN_VON_OBEN_DIE_SUEDALPEN_2011_HDCLUBDisc Size: 47 805 032 643 bytesProtection: AACSBD-Java: NoPlaylist: 00000.MPLSSize: 8 644 608 bytesLength: 0:00:28.040Total Bitrate: 2,47 MbpsVideo: MPEG-4 AVC Video / 2277 kbps / 1080i / 25 fps / 16:9 / High Profile 4.1
********************PLAYLIST: 01000.MPLS********************
Total   Video
Title                                                           Codec   Length  Movie Size      Disc Size       Bitrate Bitrate Main Audio Track                          Secondary Audio Track
-----                                                           ------  ------- --------------  --------------  ------- ------- ------------------                        ---------------------
01000.MPLS                                                      AVC     0:00:28 8 644 608       47 805 032 643  2,47    2,28
DISC INFO:
Disc Title:     DIE_ALPEN_VON_OBEN_DIE_SUEDALPEN_2011_HDCLUB
Disc Size:      47 805 032 643 bytes
Protection:     AACS
BD-Java:        No
Extras:         50Hz Content
BDInfo:         0.5.8
PLAYLIST REPORT:
Name:                   01000.MPLS
Length:                 0:00:28.040 (h:m:s.ms)
Size:                   8 644 608 bytes
Total Bitrate:          2,47 Mbps
VIDEO:
Codec                   Bitrate             Description
-----                   -------             -----------
MPEG-4 AVC Video        2277 kbps           1080i / 25 fps / 16:9 / High Profile 4.1
FILES:
Name            Time In         Length          Size            Total Bitrate
----            -------         ------          ----            -------------
00000.M2TS      0:00:00.000     0:00:28.040     8 644 608       2 466
CHAPTERS:
Number          Time In         Length          Avg Video Rate  Max 1-Sec Rate  Max 1-Sec Time  Max 5-Sec Rate  Max 5-Sec Time  Max 10Sec Rate  Max 10Sec Time  Avg Frame Size  Max Frame Size  Max Frame Time
------          -------         ------          --------------  --------------  --------------  --------------  --------------  --------------  --------------  --------------  --------------  --------------
1               0:00:00.000     0:00:28.040     2 277 kbps      11 528 kbps     00:00:00.399    4 832 kbps      00:00:05.159    4 053 kbps      00:00:00.360    11 403 bytes    179 841 bytes   00:00:05.200
STREAM DIAGNOSTICS:
File            PID             Type            Codec           Language                Seconds                 Bitrate                 Bytes           Packets
----            ---             ----            -----           --------                --------------          --------------          -------------   -----
00000.M2TS      4113 (0x1011)   0x1B            AVC                                     27,960                  2 284                   7 981 884       43 784
QUICK SUMMARY:
Disc Title: DIE_ALPEN_VON_OBEN_DIE_SUEDALPEN_2011_HDCLUBDisc Size: 47 805 032 643 bytesProtection: AACSBD-Java: NoPlaylist: 01000.MPLSSize: 8 644 608 bytesLength: 0:00:28.040Total Bitrate: 2,47 MbpsVideo: MPEG-4 AVC Video / 2277 kbps / 1080i / 25 fps / 16:9 / High Profile 4.1

Скриншоты

Дополнительно

За исходные русские дороги большое спасибо lengyel.
Раздача от группы:
[Профиль] [ЛС]
Показать сообщения:    

Текущее время: Сегодня 10:31

Часовой пояс: GMT



Вы не можете начинать темы
Вы не можете отвечать на сообщения
Вы не можете редактировать свои сообщения
Вы не можете удалять свои сообщения
Вы не можете голосовать в опросах
Вы не можете прикреплять файлы к сообщениям
Вы не можете скачивать файлы